<?xml version="1.0" standalone="no"?>
<!DOCTYPE svg PUBLIC "-//W3C//DTD SVG 1.1//EN" "http://www.w3.org/Graphics/SVG/1.1/DTD/svg11.dtd" >
<svg xmlns="http://www.w3.org/2000/svg" xmlns:xlink="http://www.w3.org/1999/xlink" version="1.1">
<metadata>
Created by FontForge 20201107 at Fri Oct 26 17:39:44 2007
 By Jimmy Wärting
Copyright (c) Christian Schwartz, 2007. All rights reserved.
</metadata>
<defs>
<font id="StagSans-Book" horiz-adv-x="407" >
  <font-face 
    font-family="Stag Sans Book"
    font-weight="400"
    font-stretch="normal"
    units-per-em="1000"
    panose-1="2 11 5 3 4 0 0 2 0 4"
    ascent="800"
    descent="-200"
    x-height="523"
    cap-height="700"
    bbox="-169 -201 1101 913"
    underline-thickness="50"
    underline-position="-200"
    unicode-range="U+0020-FB02"
  />
<missing-glyph horiz-adv-x="485" 
 />
    <glyph glyph-name="f_f" unicode="ff" horiz-adv-x="591" 
d="M20 451v72h63v39q0 70 37.5 104.5t104.5 34.5q41 0 73 -10v-65h-41q-36 0 -54 -15t-18 -53v-35h172v45q0 71 37.5 105t105.5 34q45 0 74 -11v-64h-43q-37 0 -54.5 -14.5t-17.5 -53.5v-41h108v-72h-108v-451h-102v451h-172v-451h-102v451h-63z" />
    <glyph glyph-name=".notdef" horiz-adv-x="485" 
 />
    <glyph glyph-name=".null" horiz-adv-x="0" 
 />
    <glyph glyph-name="nonmarkingreturn" horiz-adv-x="333" 
 />
    <glyph glyph-name="space" unicode=" " horiz-adv-x="216" 
 />
    <glyph glyph-name="exclam" unicode="!" horiz-adv-x="265" 
d="M97 180l-19 455v65h109v-65l-19 -455h-71zM132 -5q-26 0 -43.5 18t-17.5 44t18 44.5t43 18.5q26 0 44 -18.5t18 -44.5t-18 -44t-44 -18z" />
    <glyph glyph-name="quotedbl" unicode="&#x22;" horiz-adv-x="306" 
d="M51 497l-19 142v61h97v-61l-17 -142h-61zM194 497l-17 142v61h97v-61l-18 -142h-62z" />
    <glyph glyph-name="numbersign" unicode="#" horiz-adv-x="507" 
d="M57 420v82h89l28 198h73l-30 -198h111l28 198h72l-28 -198h76v-82h-88l-16 -115h76v-82h-88l-31 -223h-72l31 223h-109l-31 -223h-73l32 223h-78v82h90l15 115h-77zM206 420l-16 -115h110l16 115h-110z" />
    <glyph glyph-name="dollar" unicode="$" horiz-adv-x="519" 
d="M290 764v-59q89 -7 157 -50v-84h-37q-54 49 -120 57v-228q106 -30 151 -71.5t45 -128.5q0 -92 -52.5 -144t-149.5 -60v-98h-67v97q-109 5 -186 60v88h38q58 -63 148 -71v248q-95 29 -140 71.5t-45 122.5q0 82 51.5 132t139.5 58v60h67zM391 188q0 49 -25 72t-82 40v-226
q107 17 107 114zM123 524q0 -43 23.5 -65t76.5 -40v208q-100 -14 -100 -103z" />
    <glyph glyph-name="percent" unicode="%" horiz-adv-x="772" 
d="M191 406q37 0 57.5 30.5t20.5 88.5q0 59 -20.5 89t-57.5 30q-36 0 -56.5 -30.5t-20.5 -88.5t21 -88.5t56 -30.5zM191 344q-67 0 -114 47.5t-47 134.5t46.5 133.5t114.5 46.5q69 0 115 -46.5t46 -133.5t-46 -134.5t-115 -47.5zM106 -34l478 763h81l-479 -763h-80zM580 56
q36 0 57 30.5t21 88.5q0 59 -21 89t-57 30t-56.5 -30t-20.5 -89q0 -58 20.5 -88.5t56.5 -30.5zM580 -6q-68 0 -114.5 47.5t-46.5 134.5t46.5 133.5t114.5 46.5t114.5 -46.5t46.5 -133.5t-46.5 -134.5t-114.5 -47.5z" />
    <glyph glyph-name="ampersand" unicode="&#x26;" horiz-adv-x="657" 
d="M526 0l-63 72q-78 -78 -194 -78q-113 0 -174 55.5t-61 148.5q0 72 41 122.5t107 79.5q-43 60 -43 131q0 78 54 126.5t147 48.5q90 0 145 -43v-80h-40q-42 40 -104 40q-45 0 -72 -25.5t-27 -67.5q0 -30 14 -56.5t48 -65.5l163 -188q43 97 50 188h88v-26q-19 -124 -80 -229
l104 -120v-33h-103zM286 75q73 0 125 55l-185 215q-84 -49 -84 -138q0 -57 36 -94.5t108 -37.5z" />
    <glyph glyph-name="quotesingle" unicode="'" horiz-adv-x="162" 
d="M51 497l-19 142v61h97v-61l-17 -142h-61z" />
    <glyph glyph-name="parenleft" unicode="(" horiz-adv-x="314" 
d="M288 741v-70q-27 -12 -51.5 -34t-49 -58.5t-38.5 -95.5t-14 -134q0 -259 153 -329v-69h-23q-42 13 -80.5 41t-73 74t-55 119t-20.5 164q0 89 20.5 161t55 117.5t73 73t80.5 40.5h23z" />
    <glyph glyph-name="parenright" unicode=")" horiz-adv-x="314" 
d="M25 671v70h25q42 -13 79.5 -40.5t72.5 -73t55.5 -117.5t20.5 -161q0 -73 -14 -135.5t-36.5 -105.5t-53 -76t-61 -52t-63.5 -29h-25v69q29 13 53.5 34.5t49 58.5t38.5 97.5t14 138.5q0 75 -14.5 134t-39 95.5t-49 58.5t-52.5 34z" />
    <glyph glyph-name="asterisk" unicode="*" horiz-adv-x="374" 
d="M227 659l-16 -89l73 44l37 12l25 -80l-36 -12l-83 -10l63 -60l24 -33l-65 -48l-24 33l-39 82l-37 -82l-24 -33l-65 48l24 33l63 60l-83 10l-37 12l26 80l36 -12l73 -44l-16 89v41h81v-41z" />
    <glyph glyph-name="plus" unicode="+" horiz-adv-x="500" 
d="M466 303h-172v-188h-87v188h-173v85h173v188h87v-188h172v-85z" />
    <glyph glyph-name="comma" unicode="," horiz-adv-x="197" 
d="M32 -48q53 9 53 39q0 8 -2.5 12t-11.5 9t-11 6q-24 16 -24 47q0 23 17.5 39t42.5 16q28 0 46.5 -20t18.5 -58q0 -65 -31.5 -98.5t-97.5 -41.5v50z" />
    <glyph glyph-name="hyphen" unicode="-" horiz-adv-x="276" 
d="M37 254v87h202v-87h-202z" />
    <glyph glyph-name="period" unicode="." horiz-adv-x="197" 
d="M98 -5q-26 0 -44 18t-18 44t18 44.5t44 18.5t44.5 -18.5t18.5 -44.5t-18.5 -44t-44.5 -18z" />
    <glyph glyph-name="slash" unicode="/" horiz-adv-x="336" 
d="M320 741v-23l-229 -767h-78v23l228 767h79z" />
    <glyph glyph-name="zero" unicode="0" horiz-adv-x="649" 
d="M325 -6q-123 0 -204.5 91.5t-81.5 264.5q0 172 82 264t204 92t203.5 -92t81.5 -264q0 -173 -81.5 -264.5t-203.5 -91.5zM325 74q82 0 128 67t46 207q0 141 -46 209t-128 68q-174 0 -174 -277q0 -274 174 -274z" />
    <glyph glyph-name="one" unicode="1" horiz-adv-x="346" 
d="M253 0h-108v581l-92 -52h-32v74l160 97h72v-700z" />
    <glyph glyph-name="two" unicode="2" horiz-adv-x="518" 
d="M476 89v-89h-449v90l197 197q75 76 107.5 125.5t32.5 98.5q0 52 -30.5 81t-87.5 29q-87 0 -155 -62h-38v77q89 70 199 70q107 0 164 -48.5t57 -142.5q0 -70 -42 -132t-131 -149l-148 -145h324z" />
    <glyph glyph-name="three" unicode="3" horiz-adv-x="507" 
d="M219 -6q-119 0 -194 58v81h44q50 -56 144 -56q69 0 108.5 33.5t39.5 93.5q0 115 -142 115h-55v81h48q141 0 141 113q0 109 -118 109q-85 0 -145 -50h-39v73q82 61 192 61q102 0 157.5 -46t55.5 -137q0 -120 -121 -158v-4q135 -27 135 -160q0 -98 -67.5 -152.5
t-183.5 -54.5z" />
    <glyph glyph-name="four" unicode="4" horiz-adv-x="564" 
d="M455 0h-108v162h-321v96l328 442h101v-457h84v-81h-84v-162zM109 246v-3h238v319h-2z" />
    <glyph glyph-name="five" unicode="5" horiz-adv-x="519" 
d="M482 232q0 -110 -73 -174t-192 -64q-109 0 -187 55v81h43q50 -54 142 -54q72 0 115.5 40.5t43.5 111.5q0 70 -34.5 105t-90.5 35q-79 0 -128 -58h-67v390h393v-90h-313v-206h2q53 46 139 46q91 0 149 -55t58 -163z" />
    <glyph glyph-name="six" unicode="6" horiz-adv-x="583" 
d="M302 -6q-117 0 -190 86.5t-73 254.5q0 178 87.5 274.5t237.5 96.5q87 0 144 -31v-84h-42q-39 33 -107 33q-98 0 -150.5 -66.5t-58.5 -191.5q65 70 182 70q95 0 155.5 -54.5t60.5 -155.5q0 -105 -68 -168.5t-178 -63.5zM307 358q-45 0 -87.5 -18t-70.5 -46
q8 -224 153 -224q67 0 103 41t36 112q0 67 -36 101t-98 34z" />
    <glyph glyph-name="seven" unicode="7" horiz-adv-x="509" 
d="M116 0v47l280 560v3h-366v90h447v-98l-260 -602h-101z" />
    <glyph glyph-name="eight" unicode="8" horiz-adv-x="574" 
d="M286 -6q-121 0 -186.5 54t-65.5 148q0 66 37.5 112t100.5 65v3q-50 17 -79 55.5t-29 94.5q0 83 61 131.5t161 48.5q101 0 162 -48.5t61 -131.5q0 -56 -28.5 -94.5t-78.5 -55.5v-3q64 -19 101 -65t37 -112q0 -94 -66.5 -148t-187.5 -54zM286 70q72 0 110.5 36t38.5 95
t-39 96.5t-110 37.5t-109 -37.5t-38 -96.5t37.5 -95t109.5 -36zM286 412q56 0 88.5 28.5t32.5 78.5q0 51 -32.5 80.5t-88.5 29.5q-55 0 -87 -29.5t-32 -80.5q0 -50 31.5 -78.5t87.5 -28.5z" />
    <glyph glyph-name="nine" unicode="9" horiz-adv-x="582" 
d="M216 -6q-87 0 -148 28v85h43q32 -32 109 -32q105 0 155.5 64t57.5 190q-70 -65 -181 -65q-97 0 -157.5 54t-60.5 154q0 104 68 169t178 65q117 0 189.5 -86.5t72.5 -254.5q0 -180 -85 -275.5t-241 -95.5zM276 342q45 0 88 18t69 46q-10 224 -153 224q-67 0 -102.5 -41.5
t-35.5 -113.5q0 -67 36 -100t98 -33z" />
    <glyph glyph-name="colon" unicode=":" horiz-adv-x="200" 
d="M100 294q-26 0 -44.5 18t-18.5 44t18.5 44.5t44.5 18.5t44 -18.5t18 -44.5t-18 -44t-44 -18zM100 -5q-26 0 -44.5 18t-18.5 44t18.5 44.5t44.5 18.5t44 -18.5t18 -44.5t-18 -44t-44 -18z" />
    <glyph glyph-name="semicolon" unicode=";" horiz-adv-x="200" 
d="M32 -48q53 9 53 39q0 8 -2.5 12t-11.5 9t-11 6q-24 16 -24 47q0 23 17.5 39t42.5 16q28 0 46.5 -20t18.5 -58q0 -65 -31.5 -98.5t-97.5 -41.5v50zM100 294q-26 0 -44.5 18t-18.5 44t18.5 44.5t44.5 18.5t44 -18.5t18 -44.5t-18 -44t-44 -18z" />
    <glyph glyph-name="less" unicode="&#x3c;" horiz-adv-x="465" 
d="M33 293v73l369 194h26v-80l-291 -148v-2l291 -150v-81h-26z" />
    <glyph glyph-name="equal" unicode="=" horiz-adv-x="492" 
d="M456 368h-421v85h421v-85zM456 176h-421v85h421v-85z" />
    <glyph glyph-name="greater" unicode="&#x3e;" horiz-adv-x="465" 
d="M432 366v-73l-369 -194h-26v80l292 148v2l-292 150v81h26z" />
    <glyph glyph-name="question" unicode="?" horiz-adv-x="441" 
d="M134 180q-10 65 5 106t67 94q25 25 34 35.5t26 32.5t23.5 42.5t6.5 44.5q0 42 -25 65t-70 23q-82 0 -127 -52h-42v79q72 56 175 56q93 0 145.5 -43.5t52.5 -127.5q0 -57 -27 -96.5t-85 -92.5q-35 -33 -49.5 -49t-26 -47t-7.5 -70h-76zM176 -5q-26 0 -43.5 18t-17.5 44
t17.5 44.5t43.5 18.5t44 -18.5t18 -44.5t-18 -44t-44 -18z" />
    <glyph glyph-name="at" unicode="@" horiz-adv-x="858" 
d="M430 -128q-78 0 -147 21.5t-125.5 65t-90 116.5t-33.5 167q0 98 37.5 180t98 133.5t134 79.5t148.5 28q158 0 265 -87.5t107 -239.5q0 -131 -66.5 -199.5t-159.5 -68.5q-101 0 -114 74q-60 -74 -139 -74q-54 0 -86.5 35t-32.5 101q0 97 63.5 177.5t160.5 80.5
q60 0 99 -37q22 33 55 33h32l-58 -253q-14 -71 40 -71q56 0 92.5 50t36.5 152q0 121 -80.5 190.5t-214.5 69.5q-64 0 -123.5 -22.5t-107.5 -65t-77 -111.5t-29 -155q0 -154 87.5 -228.5t227.5 -74.5q152 0 246 69h27v-63q-46 -33 -118.5 -53t-154.5 -20zM372 136
q53 0 112 65l40 176q-32 16 -63 16q-60 0 -102 -57.5t-42 -131.5q0 -34 15 -51t40 -17z" />
    <glyph glyph-name="A" unicode="A" horiz-adv-x="639" 
d="M31 0v33l231 667h116l230 -667v-33h-103l-65 196h-257l-63 -196h-89zM310 585l-101 -309h204l-101 309h-2z" />
    <glyph glyph-name="B" unicode="B" horiz-adv-x="588" 
d="M77 0v700h215q229 0 229 -180q0 -118 -120 -149v-3q149 -32 149 -169q0 -97 -65 -148t-182 -51h-226zM184 82h116q66 0 102.5 31t36.5 91q0 61 -37 91.5t-106 30.5h-112v-244zM184 405h104q125 0 125 108q0 105 -124 105h-105v-213z" />
    <glyph glyph-name="C" unicode="C" horiz-adv-x="613" 
d="M354 -6q-142 0 -226.5 94t-84.5 262q0 165 90 260.5t230 95.5q70 0 114 -13.5t88 -42.5v-85h-42q-60 58 -157 58t-154.5 -70t-57.5 -199q0 -137 53 -207.5t151 -70.5q106 0 180 76h35v-83q-86 -75 -219 -75z" />
    <glyph glyph-name="D" unicode="D" horiz-adv-x="668" 
d="M77 0v700h200q174 0 262 -84t88 -264q0 -352 -353 -352h-197zM185 82h89q125 0 183 62.5t58 206.5q0 142 -57.5 204t-183.5 62h-89v-535z" />
    <glyph glyph-name="E" unicode="E" horiz-adv-x="556" 
d="M77 0v700h429v-84h-321v-218h235v-80h-235v-236h332v-82h-440z" />
    <glyph glyph-name="F" unicode="F" horiz-adv-x="545" 
d="M185 0h-108v700h431v-84h-323v-234h245v-81h-245v-301z" />
    <glyph glyph-name="G" unicode="G" horiz-adv-x="661" 
d="M358 -6q-150 0 -234 92t-84 264q0 171 89.5 263.5t240.5 92.5q108 0 197 -47v-90h-39q-60 53 -156 53q-103 0 -160 -65.5t-57 -202.5q0 -281 203 -281q75 0 127 25v181h-117v76h225v-307q-100 -54 -235 -54z" />
    <glyph glyph-name="H" unicode="H" horiz-adv-x="681" 
d="M185 0h-108v700h108v-300h311v300h109v-700h-109v318h-311v-318z" />
    <glyph glyph-name="I" unicode="I" horiz-adv-x="268" 
d="M189 0h-110v700h110v-700z" />
    <glyph glyph-name="J" unicode="J" horiz-adv-x="442" 
d="M168 -7q-84 0 -144 37v83h38q39 -37 101 -37q96 0 96 100v524h110v-526q0 -88 -50.5 -134.5t-150.5 -46.5z" />
    <glyph glyph-name="K" unicode="K" horiz-adv-x="632" 
d="M77 0v700h108v-348l303 348h88v-33l-220 -249l244 -385v-33h-101l-214 339l-100 -109v-230h-108z" />
    <glyph glyph-name="L" unicode="L" horiz-adv-x="535" 
d="M497 0h-420v700h108v-618h312v-82z" />
    <glyph glyph-name="M" unicode="M" horiz-adv-x="825" 
d="M77 0v700h151l185 -531h2l185 531h148v-700h-108v571h-3l-200 -571h-68l-198 571h-4v-571h-90z" />
    <glyph glyph-name="N" unicode="N" horiz-adv-x="679" 
d="M77 0v700h125l305 -515h2v515h94v-700h-100l-331 561h-2v-561h-93z" />
    <glyph glyph-name="O" unicode="O" horiz-adv-x="714" 
d="M357 -6q-135 0 -226 94.5t-91 261.5q0 166 91.5 261t225.5 95t225 -95t91 -261t-91 -261t-225 -95zM357 75q92 0 148.5 69.5t56.5 203.5q0 135 -56.5 206t-148.5 71t-148.5 -71t-56.5 -206q0 -134 56 -203.5t149 -69.5z" />
    <glyph glyph-name="P" unicode="P" horiz-adv-x="573" 
d="M77 0v700h204q258 0 258 -213q0 -217 -260 -217h-94v-270h-108zM185 617v-268h94q78 0 114 32.5t36 103.5q0 70 -35.5 101t-114.5 31h-94z" />
    <glyph glyph-name="Q" unicode="Q" horiz-adv-x="715" 
d="M648 -108l-321 90q-138 40 -212.5 127.5t-74.5 240.5q0 167 91 261.5t226 94.5t225.5 -94.5t90.5 -261.5q0 -128 -57.5 -213t-155.5 -113v-2l234 -44v-86h-46zM357 73q92 0 148.5 70t56.5 205t-56.5 206t-148.5 71t-148.5 -71t-56.5 -206q0 -134 56.5 -204.5t148.5 -70.5
z" />
    <glyph glyph-name="R" unicode="R" horiz-adv-x="613" 
d="M472 0l-154 293q-10 -1 -33 -1h-99v-292h-108v700h207q120 0 185 -49.5t65 -149.5q0 -140 -115 -187l151 -281v-33h-99zM186 617v-245h96q73 0 108 29t35 94q0 122 -143 122h-96z" />
    <glyph glyph-name="S" unicode="S" horiz-adv-x="520" 
d="M242 -6q-125 0 -213 59v88h38q60 -64 172 -64q144 0 144 113q0 13 -2.5 24t-5 19.5t-10.5 17t-12.5 13.5t-16.5 11.5t-17.5 9t-21.5 8t-22 7.5t-25.5 7t-25.5 7q-97 28 -141 72.5t-44 126.5q0 91 60 142t163 51q113 0 186 -47v-85h-37q-61 49 -145 49q-132 0 -132 -102
q0 -50 32 -72.5t106 -41.5q115 -31 163 -73.5t48 -132.5q0 -101 -63 -154t-178 -53z" />
    <glyph glyph-name="T" unicode="T" horiz-adv-x="570" 
d="M339 0h-109v618h-201v82h511v-82h-201v-618z" />
    <glyph glyph-name="U" unicode="U" horiz-adv-x="674" 
d="M349 80q76 0 115.5 39t39.5 136v445h97v-442q0 -264 -258 -264q-127 0 -198.5 67t-71.5 197v442h109v-445q0 -98 43 -136.5t124 -38.5z" />
    <glyph glyph-name="V" unicode="V" horiz-adv-x="633" 
d="M259 0l-229 667v33h102l188 -566h2l189 566h92v-33l-231 -667h-113z" />
    <glyph glyph-name="W" unicode="W" horiz-adv-x="885" 
d="M197 0l-165 667v33h103l125 -549h2l138 549h96l137 -549h2l125 549h93v-33l-165 -667h-115l-128 528h-2l-131 -528h-115z" />
    <glyph glyph-name="X" unicode="X" horiz-adv-x="625" 
d="M38 0v35l204 330l-196 300v35h102l171 -268l160 268h88v-35l-188 -307l208 -323v-35h-101l-185 292l-176 -292h-87z" />
    <glyph glyph-name="Y" unicode="Y" horiz-adv-x="581" 
d="M349 0h-108v280l-214 385v35h99l172 -317h1l168 317h87v-35l-205 -382v-283z" />
    <glyph glyph-name="Z" unicode="Z" horiz-adv-x="541" 
d="M27 0v87l367 528v3h-340v82h455v-89l-366 -528v-3h362v-80h-478z" />
    <glyph glyph-name="bracketleft" unicode="[" horiz-adv-x="315" 
d="M77 -49v790h204v-72h-107v-646h107v-72h-204z" />
    <glyph glyph-name="backslash" unicode="\" horiz-adv-x="336" 
d="M16 718v23h78l229 -767v-23h-79z" />
    <glyph glyph-name="bracketright" unicode="]" horiz-adv-x="314" 
d="M237 741v-790h-204v72h108v646h-108v72h204z" />
    <glyph glyph-name="asciicircum" unicode="^" horiz-adv-x="417" 
d="M22 457v28l145 215h84l144 -215v-28h-83l-102 149h-3l-102 -149h-83z" />
    <glyph glyph-name="underscore" unicode="_" horiz-adv-x="356" 
d="M351 -162h-346v70h346v-70z" />
    <glyph glyph-name="grave" unicode="`" 
d="M238 567h-58l-94 100v33h102l50 -109v-24z" />
    <glyph glyph-name="a" unicode="a" horiz-adv-x="516" 
d="M413 0q-31 0 -43.5 11.5t-16.5 46.5q-59 -64 -156 -64q-74 0 -119 41t-45 115q0 78 55.5 118.5t147.5 40.5q58 0 114 -14v69q0 89 -105 89q-84 0 -143 -43h-32v76q90 45 188 45q96 0 145.5 -38t49.5 -122v-371h-40zM230 64q67 0 120 60v111q-48 10 -97 10
q-120 0 -120 -89q0 -47 26.5 -69.5t70.5 -22.5z" />
    <glyph glyph-name="b" unicode="b" horiz-adv-x="571" 
d="M169 632v-176q75 75 170 75q84 0 140 -62.5t56 -199.5q0 -73 -18.5 -128.5t-50.5 -86t-69 -45.5t-80 -15q-100 0 -159 56q-8 -22 -21.5 -36t-27.5 -14h-42v700h56q29 0 37.5 -12.5t8.5 -55.5zM302 449q-65 0 -133 -60v-272q47 -48 121 -48q141 0 141 190t-129 190z" />
    <glyph glyph-name="c" unicode="c" horiz-adv-x="489" 
d="M287 -6q-119 0 -186 71t-67 196q0 124 72.5 197t185.5 73q91 0 157 -42v-80h-42q-43 43 -116 43q-69 0 -111 -50.5t-42 -140.5q0 -93 40 -141t111 -48q81 0 127 50h38v-74q-67 -54 -167 -54z" />
    <glyph glyph-name="d" unicode="d" horiz-adv-x="572" 
d="M437 0q-18 0 -25 14t-9 57q-64 -77 -164 -77q-88 0 -145 65.5t-57 194.5q0 142 63 209.5t153 67.5q93 0 149 -54v223h56q30 0 38 -12t8 -56v-632h-67zM264 69q75 0 138 70v266q-47 44 -120 44q-61 0 -101.5 -42.5t-40.5 -147.5q0 -190 124 -190z" />
    <glyph glyph-name="e" unicode="e" horiz-adv-x="526" 
d="M491 242h-352q4 -90 43.5 -130.5t115.5 -40.5q86 0 145 48h33v-71q-79 -54 -193 -54q-119 0 -184 71t-65 195q0 123 67.5 197t171.5 74q106 0 162.5 -63t56.5 -190q0 -8 -0.5 -21.5t-0.5 -14.5zM273 461q-117 0 -132 -152h250q-1 81 -31 116.5t-87 35.5z" />
    <glyph glyph-name="f" unicode="f" horiz-adv-x="317" 
d="M20 451v72h63v45q0 70 37.5 104.5t104.5 34.5q45 0 76 -11v-64h-44q-36 0 -54 -15t-18 -53v-41h107v-72h-107v-451h-102v451h-63z" />
    <glyph glyph-name="g" unicode="g" horiz-adv-x="571" 
d="M504 523v-505q0 -90 -64.5 -138t-176.5 -48q-124 0 -201 44v77h33q59 -45 154 -45q153 0 153 117v56q-65 -68 -161 -68q-87 0 -145.5 61.5t-58.5 186.5q0 137 64 203.5t156 66.5q93 0 152 -57q11 49 48 49h47zM268 88q71 0 134 65v250q-49 46 -120 46q-61 0 -101.5 -40.5
t-40.5 -139.5t33.5 -140t94.5 -41z" />
    <glyph glyph-name="h" unicode="h" horiz-adv-x="566" 
d="M169 632v-175q94 74 200 74q134 0 134 -144v-387h-102v363q0 46 -19.5 64.5t-59.5 18.5q-64 0 -153 -52v-394h-102v700h56q29 0 37.5 -12t8.5 -56z" />
    <glyph glyph-name="i" unicode="i" horiz-adv-x="240" 
d="M170 0h-102v523h57q30 0 37.5 -14t7.5 -64v-445zM120 581q-24 0 -42 17t-18 41q0 25 18 42.5t42 17.5t42 -17.5t18 -42.5q0 -24 -18 -41t-42 -17z" />
    <glyph glyph-name="j" unicode="j" horiz-adv-x="240" 
d="M-25 -158v63h29q35 0 49.5 17t14.5 55v546h57q29 0 37 -14t8 -64v-474q0 -137 -132 -137q-39 0 -63 8zM120 581q-24 0 -42 17t-18 41q0 25 18 42.5t42 17.5t42 -17.5t18 -42.5q0 -24 -18 -41t-42 -17z" />
    <glyph glyph-name="k" unicode="k" horiz-adv-x="516" 
d="M169 632v-354l214 245h85v-30l-162 -180l179 -282v-31h-93l-155 242l-68 -75v-167h-102v700h56q29 0 37.5 -12.5t8.5 -55.5z" />
    <glyph glyph-name="l" unicode="l" horiz-adv-x="239" 
d="M171 0h-103v700h57q30 0 38 -12t8 -56v-632z" />
    <glyph glyph-name="m" unicode="m" horiz-adv-x="865" 
d="M131 523q20 0 28.5 -13t9.5 -51q91 72 187 72t120 -76q92 76 195 76q58 0 94 -33t36 -106v-392h-101v365q0 44 -18 62.5t-56 18.5q-63 0 -141 -50v-396h-102v365q0 44 -18 62.5t-55 18.5q-62 0 -141 -50v-396h-102v523h64z" />
    <glyph glyph-name="n" unicode="n" horiz-adv-x="566" 
d="M131 523q20 0 28.5 -13t9.5 -53q94 74 200 74q134 0 134 -144v-387h-102v363q0 46 -19.5 64.5t-59.5 18.5q-64 0 -153 -52v-394h-102v523h64z" />
    <glyph glyph-name="o" unicode="o" horiz-adv-x="568" 
d="M284 -6q-109 0 -179.5 72t-70.5 194q0 123 70.5 197t179.5 74t179.5 -74t70.5 -197q0 -122 -70.5 -194t-179.5 -72zM284 71q68 0 107 48t39 141t-39 143.5t-107 50.5q-67 0 -106.5 -50.5t-39.5 -143.5q0 -92 39 -140.5t107 -48.5z" />
    <glyph glyph-name="p" unicode="p" horiz-adv-x="571" 
d="M314 3q-88 0 -145 47v-212h-102v685h64q20 0 28.5 -13.5t9.5 -53.5q75 75 170 75q83 0 139.5 -62.5t56.5 -195.5q0 -139 -64 -204.5t-157 -65.5zM303 449q-64 0 -134 -60v-265q46 -46 120 -46q142 0 142 185q0 186 -128 186z" />
    <glyph glyph-name="q" unicode="q" horiz-adv-x="571" 
d="M402 -162v233q-63 -68 -159 -68q-89 0 -147.5 62.5t-58.5 190.5q0 141 64 208t156 67q94 0 152 -58q12 50 48 50h47v-685h-102zM268 78q73 0 134 66v259q-48 46 -121 46q-61 0 -101 -42t-40 -142q0 -102 33 -144.5t95 -42.5z" />
    <glyph glyph-name="r" unicode="r" horiz-adv-x="375" 
d="M324 441q-88 0 -155 -59v-382h-102v523h64q20 0 28.5 -14t9.5 -58q67 77 150 77q16 0 28 -4v-84q-19 1 -23 1z" />
    <glyph glyph-name="s" unicode="s" horiz-adv-x="443" 
d="M209 -5q-101 0 -171 46v79h33q49 -47 133 -47q109 0 109 76q0 33 -23.5 49.5t-86.5 26.5q-83 12 -124 46.5t-41 104.5q0 73 50.5 113t137.5 40q89 0 154 -37v-78h-33q-46 37 -120 37q-98 0 -98 -67q0 -31 24.5 -46.5t86.5 -24.5q89 -13 129 -47.5t40 -107.5
q0 -77 -50 -120t-150 -43z" />
    <glyph glyph-name="t" unicode="t" horiz-adv-x="332" 
d="M20 451v72h63v142h102v-142h116v-72h-116v-310q0 -40 17.5 -55.5t57.5 -15.5h47v-66q-38 -10 -83 -10q-141 0 -141 135v322h-63z" />
    <glyph glyph-name="u" unicode="u" horiz-adv-x="572" 
d="M250 73q64 0 148 50v400h102v-523h-64q-19 0 -27 11t-10 48q-93 -66 -189 -66q-143 0 -143 140v390h102v-367q0 -47 20.5 -65t60.5 -18z" />
    <glyph glyph-name="v" unicode="v" horiz-adv-x="528" 
d="M217 0l-190 494v29h95l148 -400h2l141 400h88v-29l-185 -494h-99z" />
    <glyph glyph-name="w" unicode="w" horiz-adv-x="756" 
d="M174 0l-145 493v30h95l105 -378h2l114 378h80l113 -378h2l104 378h83v-30l-144 -493h-91l-112 374h-2l-114 -374h-90z" />
    <glyph glyph-name="x" unicode="x" horiz-adv-x="515" 
d="M31 0v30l158 238l-151 225v30h95l128 -195l118 195h84v-30l-140 -220l160 -243v-30h-94l-139 215l-133 -215h-86z" />
    <glyph glyph-name="y" unicode="y" horiz-adv-x="526" 
d="M151 -162v29l72 163l-196 465v28h96l149 -367h1l139 367h88v-28l-261 -657h-88z" />
    <glyph glyph-name="z" unicode="z" horiz-adv-x="477" 
d="M37 0v75l292 373h-274v75h388v-75l-293 -372h286v-76h-399z" />
    <glyph glyph-name="braceleft" unicode="{" horiz-adv-x="344" 
d="M109 74v186q0 25 -14.5 40.5t-42.5 15.5h-25v72h25q28 0 42.5 16t14.5 41v174q0 122 128 122h74v-72h-61q-21 0 -32.5 -13.5t-11.5 -35.5v-171q0 -75 -75 -95v-2q75 -20 75 -96v-183q0 -22 12 -36t32 -14h61v-72h-74q-128 0 -128 123z" />
    <glyph glyph-name="bar" unicode="|" horiz-adv-x="195" 
d="M138 741v-790h-82v790h82z" />
    <glyph glyph-name="braceright" unicode="}" horiz-adv-x="344" 
d="M235 260v-186q0 -123 -127 -123h-75v72h60q21 0 33.5 14.5t12.5 35.5v183q0 76 75 96v2q-75 20 -75 95v171q0 21 -12.5 35t-33.5 14h-60v72h75q127 0 127 -122v-174q0 -26 14 -41.5t43 -15.5h24v-72h-24q-29 0 -43 -15.5t-14 -40.5z" />
    <glyph glyph-name="asciitilde" unicode="~" horiz-adv-x="368" 
d="M27 224v35q9 40 33.5 65.5t61.5 25.5q27 0 67.5 -16t51.5 -16q27 0 36 36h63v-34q-9 -41 -33.5 -66t-61.5 -25q-25 0 -66 16t-52 16q-28 0 -37 -37h-63z" />
    <glyph glyph-name="exclamdown" unicode="&#xa1;" horiz-adv-x="265" 
d="M168 447l19 -456v-65h-109v65l19 456h71zM133 632q26 0 43.5 -18t17.5 -44t-18 -44.5t-43 -18.5q-26 0 -44 18.5t-18 44.5t18 44t44 18z" />
    <glyph glyph-name="cent" unicode="&#xa2;" horiz-adv-x="500" 
d="M460 48q-54 -43 -133 -52v-99h-67v98q-106 9 -166 79t-60 187q0 113 62.5 184.5t163.5 83.5v58h67v-58q73 -6 128 -40v-80h-43q-33 33 -85 41v-377q60 10 95 49h38v-74zM137 261q0 -167 123 -188v377q-58 -11 -90.5 -60t-32.5 -129z" />
    <glyph glyph-name="sterling" unicode="&#xa3;" horiz-adv-x="512" 
d="M29 0v77q80 38 80 134q0 42 -12 99h-64v75h48q-16 71 -16 120q0 94 63.5 147.5t165.5 53.5t174 -53v-82h-39q-59 50 -133 50q-57 0 -90 -29t-33 -84q0 -37 14 -123h178v-75h-165q8 -51 8 -98q0 -72 -51 -123h322v-89h-450z" />
    <glyph glyph-name="yen" unicode="&#xa5;" horiz-adv-x="549" 
d="M61 301v66h132l-163 298v35h97l157 -299h1l152 299h83v-35l-158 -298h135v-66h-163v-61h163v-66h-163v-174h-109v174h-164v66h164v61h-164z" />
    <glyph glyph-name="brokenbar" unicode="&#xa6;" horiz-adv-x="167" 
d="M42 -49v358h83l-1 -358h-82zM42 389v352h82l1 -352h-83z" />
    <glyph glyph-name="section" unicode="&#xa7;" horiz-adv-x="515" 
d="M31 284q0 103 106 136q-60 40 -60 128q0 71 51 114.5t139 43.5q102 0 161 -39v-77h-33q-48 38 -125 38q-49 0 -76.5 -20t-27.5 -55q0 -34 27.5 -55.5t94.5 -37.5q99 -25 146 -63.5t47 -110.5q0 -100 -102 -137q61 -41 61 -118q0 -75 -52 -119t-153 -44q-103 0 -177 45v79
h33q20 -19 59 -33t84 -14q107 0 107 76q0 36 -28 54.5t-109 41.5q-91 27 -132 64.5t-41 102.5zM235 204q62 -19 65 -20q88 20 88 88q0 38 -29.5 60.5t-93.5 38.5q-10 2 -26.5 7t-20.5 6q-96 -13 -96 -83q0 -35 25.5 -57t87.5 -40z" />
    <glyph glyph-name="dieresis" unicode="&#xa8;" 
d="M117 581q-23 0 -40 16.5t-17 39.5t17 39.5t40 16.5q24 0 40.5 -16.5t16.5 -39.5t-16.5 -39.5t-40.5 -16.5zM289 581q-23 0 -39.5 16.5t-16.5 39.5t16.5 39.5t39.5 16.5t40 -16.5t17 -39.5t-17 -39.5t-40 -16.5z" />
    <glyph glyph-name="copyright" unicode="&#xa9;" horiz-adv-x="775" 
d="M387 -7q-145 0 -245.5 95.5t-100.5 261.5t100.5 261.5t245.5 95.5q147 0 247 -95.5t100 -261.5t-100 -261.5t-247 -95.5zM387 38q128 0 211.5 83.5t83.5 228.5q0 146 -84 229.5t-211 83.5q-126 0 -210 -84t-84 -229t84 -228.5t210 -83.5zM397 155q-88 0 -138 52t-50 144
q0 90 53.5 143.5t138.5 53.5q67 0 118 -30v-66h-36q-28 32 -82 32q-49 0 -78 -35t-29 -99q0 -131 106 -131q58 0 89 35h33v-59q-49 -40 -125 -40z" />
    <glyph glyph-name="ordfeminine" unicode="&#xaa;" horiz-adv-x="436" 
d="M346 258q-24 0 -34 10.5t-14 37.5q-50 -53 -131 -53q-62 0 -100.5 33.5t-38.5 97.5q0 66 46.5 101t124.5 35q52 0 97 -12v51q0 40 -21 57t-68 17q-71 0 -118 -35h-30v70q74 38 164 38q83 0 125 -32t42 -107v-309h-44zM198 317q56 0 98 47v90q-48 8 -77 8q-99 0 -99 -73
q0 -72 78 -72z" />
    <glyph glyph-name="guillemotleft" unicode="&#xab;" horiz-adv-x="477" 
d="M171 43l-132 194v45l132 195h80v-27l-123 -188v-2l123 -191v-26h-80zM357 43l-132 194v45l132 195h81v-27l-124 -188v-2l124 -191v-26h-81z" />
    <glyph glyph-name="registered" unicode="&#xae;" horiz-adv-x="405" 
d="M202 350q-74 0 -127 49t-53 130q0 82 53 130.5t127 48.5q73 0 126.5 -48.5t53.5 -130.5q0 -81 -53.5 -130t-126.5 -49zM202 384q61 0 100.5 38t39.5 107t-39.5 107t-100.5 38q-62 0 -101.5 -38t-39.5 -107t39.5 -107t101.5 -38zM240 439l-36 68h-22v-68h-49v188h76
q72 0 72 -60q0 -34 -32 -50l35 -61v-17h-44zM205 540q28 0 28 28q0 26 -28 26h-23v-54h23z" />
    <glyph glyph-name="macron" unicode="&#xaf;" 
d="M321 668v-72h-235v72h235z" />
    <glyph glyph-name="degree" unicode="&#xb0;" horiz-adv-x="338" 
d="M169 436q-56 0 -95 38t-39 97q0 60 39 97.5t95 37.5t95 -37.5t39 -97.5q0 -59 -39 -97t-95 -38zM169 491q33 0 54 22t21 58t-21 58.5t-54 22.5q-32 0 -52.5 -22.5t-20.5 -58.5t20.5 -58t52.5 -22z" />
    <glyph glyph-name="two.superior" unicode="&#xb2;" horiz-adv-x="319" 
d="M286 385v-65h-257v65l106 101q38 35 53.5 57.5t15.5 46.5q0 23 -15 37t-43 14q-44 0 -77 -31h-31v56q49 39 119 39q62 0 96 -28t34 -81q0 -38 -21.5 -69t-71.5 -77l-72 -65h164z" />
    <glyph glyph-name="three.superior" unicode="&#xb3;" horiz-adv-x="312" 
d="M136 315q-68 0 -113 34v54h31q28 -28 75 -28q73 0 73 57q0 54 -70 54h-35v55h32q32 0 50.5 14t18.5 39q0 48 -60 48q-44 0 -74 -24h-30v52q51 35 115 35q57 0 92 -26t35 -76q0 -63 -71 -85v-2q77 -16 77 -89q0 -53 -39 -82.5t-107 -29.5z" />
    <glyph glyph-name="acute" unicode="&#xb4;" 
d="M228 567h-59v24l50 109h103v-33z" />
    <glyph glyph-name="paragraph" unicode="&#xb6;" horiz-adv-x="569" 
d="M264 -91v409h-9q-221 0 -221 191q0 105 63.5 148t177.5 43h218v-791h-77v714h-75v-714h-77z" />
    <glyph glyph-name="periodcentered" unicode="&#xb7;" horiz-adv-x="197" 
d="M98 240q-26 0 -43.5 18t-17.5 44t18 44.5t43 18.5q26 0 44 -18.5t18 -44.5t-18 -44t-44 -18z" />
    <glyph glyph-name="cedilla" unicode="&#xb8;" 
d="M163 0h54v-31q77 -3 77 -71q0 -34 -25.5 -53.5t-66.5 -19.5q-39 0 -73 18v48h25q13 -15 39 -15q34 0 34 24q0 25 -41 25h-23v75z" />
    <glyph glyph-name="one.superior" unicode="&#xb9;" horiz-adv-x="249" 
d="M189 320h-85v295l-62 -34h-19v61l105 58h61v-380z" />
    <glyph glyph-name="ordmasculine" unicode="&#xba;" horiz-adv-x="499" 
d="M249 253q-93 0 -154 60.5t-61 164.5t61 166t154 62q94 0 155 -62t61 -166t-61 -164.5t-155 -60.5zM249 323q56 0 87.5 39t31.5 116q0 76 -32 116.5t-87 40.5t-86.5 -40.5t-31.5 -116.5q0 -77 31.5 -116t86.5 -39z" />
    <glyph glyph-name="guillemotright" unicode="&#xbb;" horiz-adv-x="477" 
d="M225 43v26l123 191v3l-123 187v27h81l132 -195v-44l-132 -195h-81zM39 43v26l123 191v3l-123 187v27h81l131 -195v-44l-131 -195h-81z" />
    <glyph glyph-name="onequarter" unicode="&#xbc;" horiz-adv-x="688" 
d="M622 0h-79v85h-174v64l177 231h76v-239h45v-56h-45v-85zM430 143v-2h114v146h-3zM194 320h-85v295l-62 -34h-19v61l105 58h61v-380zM610 729l-478 -763h-77l478 763h77z" />
    <glyph glyph-name="onehalf" unicode="&#xbd;" horiz-adv-x="728" 
d="M700 64v-64h-257v64l105 101q38 36 53.5 58.5t15.5 45.5q0 24 -15 37.5t-43 13.5q-43 0 -77 -30h-31v56q49 39 120 39q61 0 95.5 -28t34.5 -81q0 -38 -22 -69.5t-72 -76.5l-71 -66h164zM194 320h-85v295l-62 -34h-19v61l105 58h61v-380zM610 729l-478 -763h-77l478 763
h77z" />
    <glyph glyph-name="threequarters" unicode="&#xbe;" horiz-adv-x="728" 
d="M145 315q-69 0 -114 34v54h31q30 -28 76 -28q73 0 73 57q0 54 -70 54h-35v55h32q32 0 50.5 14t18.5 39q0 48 -60 48q-44 0 -74 -24h-30v52q51 35 114 35q58 0 92.5 -26t34.5 -76q0 -63 -70 -85v-2q77 -16 77 -89q0 -53 -39 -82.5t-107 -29.5zM663 0h-79v85h-174v64
l177 231h76v-239h44v-56h-44v-85zM471 143v-2h114v146h-3zM661 729l-478 -763h-78l478 763h78z" />
    <glyph glyph-name="questiondown" unicode="&#xbf;" horiz-adv-x="441" 
d="M307 447q9 -66 -6 -106.5t-66 -93.5q-31 -31 -45.5 -47.5t-29.5 -46.5t-15 -61q0 -42 25 -65t70 -23q85 0 127 52h42v-80q-72 -56 -175 -56q-93 0 -145 44t-52 128q0 56 26.5 95.5t84.5 93.5q35 32 50 48.5t26 47t8 70.5h75zM265 632q26 0 43.5 -18t17.5 -44t-17.5 -44.5
t-43.5 -18.5q-25 0 -43 18.5t-18 44.5t17.5 44t43.5 18z" />
    <glyph glyph-name="Agrave" unicode="&#xc0;" horiz-adv-x="639" 
d="M31 0v33l231 667h116l230 -667v-33h-103l-65 196h-257l-63 -196h-89zM310 585l-101 -309h204l-101 309h-2zM354 722h-58l-87 88v32h103l42 -95v-25z" />
    <glyph glyph-name="Aacute" unicode="&#xc1;" horiz-adv-x="639" 
d="M31 0v33l231 667h116l230 -667v-33h-103l-65 196h-257l-63 -196h-89zM310 585l-101 -309h204l-101 309h-2zM282 722v25l43 95h103v-32l-86 -88h-60z" />
    <glyph glyph-name="Acircumflex" unicode="&#xc2;" horiz-adv-x="639" 
d="M38 0v33l231 667h115l231 -667v-33h-104l-65 196h-257l-63 -196h-88zM316 585l-100 -309h204l-102 309h-2zM202 722v29l87 94h73l84 -94v-29h-57l-66 54l-67 -54h-54z" />
    <glyph glyph-name="Atilde" unicode="&#xc3;" horiz-adv-x="639" 
d="M31 0v33l231 667h116l230 -667v-33h-103l-65 196h-257l-63 -196h-89zM310 585l-101 -309h204l-101 309h-2zM174 726v30q8 39 30 60.5t55 21.5q25 0 59.5 -16t44.5 -16q28 0 36 33h58v-29q-16 -82 -85 -82q-24 0 -58.5 16.5t-44.5 16.5q-30 0 -36 -35h-59z" />
    <glyph glyph-name="Adieresis" unicode="&#xc4;" horiz-adv-x="639" 
d="M31 0v33l231 667h116l230 -667v-33h-103l-65 196h-257l-63 -196h-89zM310 585l-101 -309h204l-101 309h-2zM236 727q-23 0 -40 16.5t-17 40.5q0 23 17 39.5t40 16.5t39.5 -16.5t16.5 -39.5q0 -24 -16.5 -40.5t-39.5 -16.5zM402 727q-23 0 -40 16.5t-17 40.5q0 23 17 39.5
t40 16.5t39.5 -16.5t16.5 -39.5q0 -24 -16.5 -40.5t-39.5 -16.5z" />
    <glyph glyph-name="Aring" unicode="&#xc5;" horiz-adv-x="639" 
d="M31 0v33l231 667h116l230 -667v-33h-103l-65 196h-257l-63 -196h-89zM310 585l-101 -309h204l-101 309h-2zM316 725q-39 0 -67 26t-28 68q0 41 28 67.5t67 26.5q40 0 68 -26t28 -68t-28 -68t-68 -26zM316 775q19 0 30.5 12t11.5 32t-11.5 32.5t-30.5 12.5
q-17 0 -28.5 -12.5t-11.5 -32.5t11 -32t29 -12z" />
    <glyph glyph-name="AE" unicode="&#xc6;" horiz-adv-x="923" 
d="M443 0v201h-237l-97 -201h-89v33l334 667h517v-84h-320v-218h235v-80h-235v-236h333v-82h-441zM408 616l-163 -335h198v335h-35z" />
    <glyph glyph-name="Ccedilla" unicode="&#xc7;" horiz-adv-x="613" 
d="M354 -6h-1v-25q78 -3 78 -71q0 -34 -25.5 -53.5t-66.5 -19.5t-73 18v48h25q13 -15 39 -15q34 0 34 24q0 25 -41 25h-23v73q-119 18 -188 109.5t-69 242.5q0 165 90 260.5t230 95.5q70 0 114 -13.5t88 -42.5v-85h-42q-60 58 -157 58t-154.5 -70t-57.5 -199
q0 -137 53 -207.5t151 -70.5q106 0 180 76h35v-83q-86 -75 -219 -75z" />
    <glyph glyph-name="Egrave" unicode="&#xc8;" horiz-adv-x="556" 
d="M338 722h-58l-88 88v32h103l43 -95v-25zM77 0v700h429v-84h-321v-218h235v-80h-235v-236h332v-82h-440z" />
    <glyph glyph-name="Eacute" unicode="&#xc9;" horiz-adv-x="556" 
d="M268 722v25l43 95h102v-32l-86 -88h-59zM77 0v700h429v-84h-321v-218h235v-80h-235v-236h332v-82h-440z" />
    <glyph glyph-name="Ecircumflex" unicode="&#xca;" horiz-adv-x="556" 
d="M77 0v700h429v-84h-321v-218h235v-80h-235v-236h332v-82h-440zM179 722v29l87 94h73l84 -94v-29h-57l-66 54l-67 -54h-54z" />
    <glyph glyph-name="Edieresis" unicode="&#xcb;" horiz-adv-x="556" 
d="M218 727q-23 0 -40 16.5t-17 40.5q0 23 17 39.5t40 16.5t40 -16.5t17 -39.5q0 -24 -17 -40.5t-40 -16.5zM384 727q-23 0 -39.5 16.5t-16.5 40.5q0 23 16.5 39.5t39.5 16.5t40 -16.5t17 -39.5q0 -24 -17 -40.5t-40 -16.5zM77 0v700h429v-84h-321v-218h235v-80h-235v-236
h332v-82h-440z" />
    <glyph glyph-name="Igrave" unicode="&#xcc;" horiz-adv-x="268" 
d="M189 0h-110v700h110v-700zM170 722h-58l-88 88v32h103l43 -95v-25z" />
    <glyph glyph-name="Iacute" unicode="&#xcd;" horiz-adv-x="268" 
d="M189 0h-110v700h110v-700zM101 722v25l43 95h103v-32l-87 -88h-59z" />
    <glyph glyph-name="Icircumflex" unicode="&#xce;" horiz-adv-x="268" 
d="M189 0h-110v700h110v-700zM12 722v29l87 94h73l84 -94v-29h-57l-66 54l-67 -54h-54z" />
    <glyph glyph-name="Idieresis" unicode="&#xcf;" horiz-adv-x="268" 
d="M189 0h-110v700h110v-700zM52 727q-24 0 -41 16.5t-17 40.5q0 22 17.5 39t40.5 17t39.5 -16.5t16.5 -39.5q0 -24 -16.5 -40.5t-39.5 -16.5zM217 727q-23 0 -39.5 16.5t-16.5 40.5q0 23 16.5 39.5t39.5 16.5q24 0 40.5 -16.5t16.5 -39.5q0 -24 -16.5 -40.5t-40.5 -16.5z
" />
    <glyph glyph-name="Eth" unicode="&#xd0;" horiz-adv-x="672" 
d="M17 309v81h64v310h200q174 0 262 -84t88 -264q0 -352 -353 -352h-197v309h-64zM189 82h89q125 0 183 62.5t58 206.5q0 142 -57.5 204t-183.5 62h-89v-227h171v-81h-171v-227z" />
    <glyph glyph-name="Ntilde" unicode="&#xd1;" horiz-adv-x="679" 
d="M211 726v30q7 39 29 60.5t56 21.5q25 0 59.5 -16t44.5 -16q28 0 36 33h58v-29q-16 -82 -85 -82q-24 0 -58.5 16.5t-44.5 16.5q-30 0 -36 -35h-59zM77 0v700h125l305 -515h2v515h94v-700h-100l-331 561h-2v-561h-93z" />
    <glyph glyph-name="Ograve" unicode="&#xd2;" horiz-adv-x="714" 
d="M393 722h-58l-87 88v32h102l43 -95v-25zM357 -6q-135 0 -226 94.5t-91 261.5q0 166 91.5 261t225.5 95t225 -95t91 -261t-91 -261t-225 -95zM357 74q92 0 148.5 70t56.5 204q0 135 -56.5 206t-148.5 71t-148.5 -71t-56.5 -206t56 -204.5t149 -69.5z" />
    <glyph glyph-name="Oacute" unicode="&#xd3;" horiz-adv-x="714" 
d="M323 722v25l43 95h103v-32l-87 -88h-59zM357 -6q-135 0 -226 94.5t-91 261.5q0 166 91.5 261t225.5 95t225 -95t91 -261t-91 -261t-225 -95zM357 74q92 0 148.5 70t56.5 204q0 135 -56.5 206t-148.5 71t-148.5 -71t-56.5 -206t56 -204.5t149 -69.5z" />
    <glyph glyph-name="Ocircumflex" unicode="&#xd4;" horiz-adv-x="714" 
d="M357 -6q-135 0 -226 94.5t-91 261.5q0 166 91.5 261t225.5 95t225 -95t91 -261t-91 -261t-225 -95zM357 74q92 0 148.5 70t56.5 204q0 135 -56.5 206t-148.5 71t-148.5 -71t-56.5 -206t56 -204.5t149 -69.5zM234 722v29l87 94h73l84 -94v-29h-57l-66 54l-67 -54h-54z" />
    <glyph glyph-name="Otilde" unicode="&#xd5;" horiz-adv-x="714" 
d="M215 726v30q7 39 29 60.5t56 21.5q25 0 59.5 -16t44.5 -16q28 0 36 33h58v-29q-16 -82 -86 -82q-24 0 -58 16.5t-44 16.5q-30 0 -36 -35h-59zM357 -6q-135 0 -226 94.5t-91 261.5q0 166 91.5 261t225.5 95t225 -95t91 -261t-91 -261t-225 -95zM357 74q92 0 148.5 70
t56.5 204q0 135 -56.5 206t-148.5 71t-148.5 -71t-56.5 -206t56 -204.5t149 -69.5z" />
    <glyph glyph-name="Odieresis" unicode="&#xd6;" horiz-adv-x="714" 
d="M274 727q-23 0 -40 16.5t-17 40.5q0 23 17 39.5t40 16.5t39 -16.5t16 -39.5q0 -24 -16 -40.5t-39 -16.5zM440 727q-23 0 -39.5 16.5t-16.5 40.5q0 23 16.5 39.5t39.5 16.5t39 -16.5t16 -39.5q0 -24 -16 -40.5t-39 -16.5zM357 -6q-135 0 -226 94.5t-91 261.5
q0 166 91.5 261t225.5 95t225 -95t91 -261t-91 -261t-225 -95zM357 74q92 0 148.5 70t56.5 204q0 135 -56.5 206t-148.5 71t-148.5 -71t-56.5 -206t56 -204.5t149 -69.5z" />
    <glyph glyph-name="multiply" unicode="&#xd7;" horiz-adv-x="489" 
d="M389 130l-144 150l-145 -150l-55 59l143 150l-143 149l55 59l145 -149l144 149l55 -59l-144 -149l144 -150z" />
    <glyph glyph-name="Oslash" unicode="&#xd8;" horiz-adv-x="714" 
d="M357 -6q-102 0 -180 55l-55 -71h-69v22l72 95q-85 98 -85 255q0 166 91.5 261t225.5 95q107 0 186 -61l53 69h70v-22l-72 -94q79 -97 79 -248q0 -166 -91 -261t-225 -95zM151 348q0 -107 34 -173l304 399q-53 51 -132 51q-92 0 -149 -71t-57 -206zM357 74q92 0 149 70
t57 204q0 98 -32 167l-302 -396q51 -45 128 -45z" />
    <glyph glyph-name="Ugrave" unicode="&#xd9;" horiz-adv-x="674" 
d="M379 722h-59l-87 88v32h103l43 -95v-25zM349 80q76 0 115.5 39t39.5 136v445h97v-442q0 -264 -258 -264q-127 0 -198.5 67t-71.5 197v442h109v-445q0 -98 43 -136.5t124 -38.5z" />
    <glyph glyph-name="Uacute" unicode="&#xda;" horiz-adv-x="674" 
d="M309 722v25l42 95h103v-32l-86 -88h-59zM349 80q76 0 115.5 39t39.5 136v445h97v-442q0 -264 -258 -264q-127 0 -198.5 67t-71.5 197v442h109v-445q0 -98 43 -136.5t124 -38.5z" />
    <glyph glyph-name="Ucircumflex" unicode="&#xdb;" horiz-adv-x="674" 
d="M220 722v29l88 94h72l85 -94v-29h-57l-66 54l-67 -54h-55zM349 80q76 0 115.5 39t39.5 136v445h97v-442q0 -264 -258 -264q-127 0 -198.5 67t-71.5 197v442h109v-445q0 -98 43 -136.5t124 -38.5z" />
    <glyph glyph-name="Udieresis" unicode="&#xdc;" horiz-adv-x="674" 
d="M260 727q-23 0 -39.5 16.5t-16.5 40.5q0 23 16.5 39.5t39.5 16.5t39 -16.5t16 -39.5q0 -24 -16 -40.5t-39 -16.5zM426 727q-23 0 -39 16.5t-16 40.5q0 23 16 39.5t39 16.5t39 -16.5t16 -39.5q0 -24 -16 -40.5t-39 -16.5zM349 80q76 0 115.5 39t39.5 136v445h97v-442
q0 -264 -258 -264q-127 0 -198.5 67t-71.5 197v442h109v-445q0 -98 43 -136.5t124 -38.5z" />
    <glyph glyph-name="Yacute" unicode="&#xdd;" horiz-adv-x="581" 
d="M263 722v25l43 95h103v-32l-87 -88h-59zM349 0h-108v280l-214 385v35h99l172 -317h1l168 317h87v-35l-205 -382v-283z" />
    <glyph glyph-name="Thorn" unicode="&#xde;" horiz-adv-x="573" 
d="M77 0v700h108v-135h96q258 0 258 -207q0 -210 -260 -210h-94v-148h-108zM185 482v-256h94q78 0 114 30.5t36 99.5q0 68 -35.5 97t-114.5 29h-94z" />
    <glyph glyph-name="germandbls" unicode="&#xdf;" horiz-adv-x="591" 
d="M67 0v502q0 98 62 152t174 54q90 0 142.5 -34.5t52.5 -105.5q0 -63 -93 -136q-34 -27 -46.5 -41t-12.5 -29q0 -16 16 -28.5t62 -31.5q70 -28 102 -61.5t32 -95.5q0 -69 -48.5 -110t-135.5 -41q-83 0 -131 36v78h33q40 -36 98 -36q42 0 67 17.5t25 47.5q0 29 -21 46
t-77 39t-83.5 50t-27.5 72q0 39 16.5 64t55.5 61q3 3 11 10t11 9.5t9.5 8.5t9 9l7.5 9t7 9.5t5 8.5t4.5 9.5t2.5 10t1 11.5q0 33 -25 50.5t-70 17.5q-66 0 -99.5 -35t-33.5 -99v-498h-102z" />
    <glyph glyph-name="agrave" unicode="&#xe0;" horiz-adv-x="516" 
d="M413 0q-31 0 -43.5 11.5t-16.5 46.5q-59 -64 -156 -64q-74 0 -119 41t-45 115q0 78 55.5 118.5t147.5 40.5q58 0 114 -14v69q0 89 -105 89q-84 0 -143 -43h-32v76q90 45 188 45q96 0 145.5 -38t49.5 -122v-371h-40zM230 64q67 0 120 60v111q-48 10 -97 10
q-120 0 -120 -89q0 -47 26.5 -69.5t70.5 -22.5zM287 567h-58l-94 100v33h103l49 -109v-24z" />
    <glyph glyph-name="aacute" unicode="&#xe1;" horiz-adv-x="516" 
d="M413 0q-31 0 -43.5 11.5t-16.5 46.5q-59 -64 -156 -64q-74 0 -119 41t-45 115q0 78 55.5 118.5t147.5 40.5q58 0 114 -14v69q0 89 -105 89q-84 0 -143 -43h-32v76q90 45 188 45q96 0 145.5 -38t49.5 -122v-371h-40zM230 64q67 0 120 60v111q-48 10 -97 10
q-120 0 -120 -89q0 -47 26.5 -69.5t70.5 -22.5zM288 567h-59v24l51 109h102v-33z" />
    <glyph glyph-name="acircumflex" unicode="&#xe2;" horiz-adv-x="516" 
d="M413 0q-31 0 -43.5 11.5t-16.5 46.5q-59 -64 -156 -64q-74 0 -119 41t-45 115q0 78 55.5 118.5t147.5 40.5q58 0 114 -14v69q0 89 -105 89q-84 0 -143 -43h-32v76q90 45 188 45q96 0 145.5 -38t49.5 -122v-371h-40zM230 64q67 0 120 60v111q-48 10 -97 10
q-120 0 -120 -89q0 -47 26.5 -69.5t70.5 -22.5zM134 567v29l88 104h73l85 -104v-29h-57l-67 64l-69 -64h-53z" />
    <glyph glyph-name="atilde" unicode="&#xe3;" horiz-adv-x="516" 
d="M413 0q-31 0 -43.5 11.5t-16.5 46.5q-59 -64 -156 -64q-74 0 -119 41t-45 115q0 78 55.5 118.5t147.5 40.5q58 0 114 -14v69q0 89 -105 89q-84 0 -143 -43h-32v76q90 45 188 45q96 0 145.5 -38t49.5 -122v-371h-40zM230 64q67 0 120 60v111q-48 10 -97 10
q-120 0 -120 -89q0 -47 26.5 -69.5t70.5 -22.5zM116 574v29q7 39 29 60.5t56 21.5q25 0 59.5 -16t44.5 -16q28 0 36 34h58v-30q-16 -82 -85 -82q-24 0 -58.5 16.5t-44.5 16.5q-30 0 -36 -34h-59z" />
    <glyph glyph-name="adieresis" unicode="&#xe4;" horiz-adv-x="516" 
d="M413 0q-31 0 -43.5 11.5t-16.5 46.5q-59 -64 -156 -64q-74 0 -119 41t-45 115q0 78 55.5 118.5t147.5 40.5q58 0 114 -14v69q0 89 -105 89q-84 0 -143 -43h-32v76q90 45 188 45q96 0 145.5 -38t49.5 -122v-371h-40zM230 64q67 0 120 60v111q-48 10 -97 10
q-120 0 -120 -89q0 -47 26.5 -69.5t70.5 -22.5zM175 581q-23 0 -40 16.5t-17 39.5t17 39.5t40 16.5t39.5 -16.5t16.5 -39.5t-16.5 -39.5t-39.5 -16.5zM341 581q-23 0 -40 16.5t-17 39.5t17 39.5t40 16.5t39.5 -16.5t16.5 -39.5t-16.5 -39.5t-39.5 -16.5z" />
    <glyph glyph-name="aring" unicode="&#xe5;" horiz-adv-x="516" 
d="M413 0q-31 0 -43.5 11.5t-16.5 46.5q-59 -64 -156 -64q-74 0 -119 41t-45 115q0 78 55.5 118.5t147.5 40.5q58 0 114 -14v69q0 89 -105 89q-84 0 -143 -43h-32v76q90 45 188 45q96 0 145.5 -38t49.5 -122v-371h-40zM230 64q67 0 120 60v111q-48 10 -97 10
q-120 0 -120 -89q0 -47 26.5 -69.5t70.5 -22.5zM257 570q-39 0 -67 25.5t-28 67.5t28 68.5t67 26.5q40 0 68 -26.5t28 -68.5t-28 -67.5t-68 -25.5zM257 619q19 0 30.5 12t11.5 32t-11.5 32.5t-30.5 12.5q-17 0 -28.5 -12.5t-11.5 -32.5q0 -19 11.5 -31.5t28.5 -12.5z" />
    <glyph glyph-name="ae" unicode="&#xe6;" horiz-adv-x="840" 
d="M206 -6q-80 0 -126.5 40.5t-46.5 116.5t56.5 117.5t151.5 41.5h109v54q0 89 -105 89q-84 0 -143 -43h-32v76q90 45 188 45q126 0 162 -70q67 70 167 70q106 0 163 -63t57 -189q0 -9 -1 -22t-1 -14h-352q4 -91 43 -131.5t116 -40.5q90 0 145 48h34v-71q-81 -54 -193 -54
q-139 0 -203 95q-70 -95 -189 -95zM228 64q85 0 141 77q-19 46 -20 102h-97q-119 0 -119 -87q0 -47 26 -69.5t69 -22.5zM587 461q-116 0 -132 -151h251q-2 81 -32 116t-87 35z" />
    <glyph glyph-name="ccedilla" unicode="&#xe7;" horiz-adv-x="489" 
d="M223 0q-90 18 -139.5 86t-49.5 175q0 124 72.5 197t185.5 73q91 0 157 -42v-80h-42q-43 43 -116 43q-69 0 -111 -50.5t-42 -140.5q0 -93 40 -141t111 -48q81 0 127 50h38v-74q-67 -54 -167 -54h-10v-25q77 -3 77 -71q0 -34 -25.5 -53.5t-66.5 -19.5q-39 0 -73 18v48h26
q11 -15 38 -15q34 0 34 24q0 25 -40 25h-24v75z" />
    <glyph glyph-name="egrave" unicode="&#xe8;" horiz-adv-x="526" 
d="M491 242h-352q4 -90 43.5 -130.5t115.5 -40.5q86 0 145 48h33v-71q-79 -54 -193 -54q-119 0 -184 71t-65 195q0 123 67.5 197t171.5 74q106 0 162.5 -63t56.5 -190q0 -8 -0.5 -21.5t-0.5 -14.5zM273 461q-117 0 -132 -152h250q-1 81 -31 116.5t-87 35.5zM301 567h-58
l-94 100v33h102l50 -109v-24z" />
    <glyph glyph-name="eacute" unicode="&#xe9;" horiz-adv-x="526" 
d="M491 242h-352q4 -90 43.5 -130.5t115.5 -40.5q86 0 145 48h33v-71q-79 -54 -193 -54q-119 0 -184 71t-65 195q0 123 67.5 197t171.5 74q106 0 162.5 -63t56.5 -190q0 -8 -0.5 -21.5t-0.5 -14.5zM273 461q-117 0 -132 -152h250q-1 81 -31 116.5t-87 35.5zM301 567h-59v24
l50 109h103v-33z" />
    <glyph glyph-name="ecircumflex" unicode="&#xea;" horiz-adv-x="526" 
d="M491 242h-352q4 -90 43.5 -130.5t115.5 -40.5q86 0 145 48h33v-71q-79 -54 -193 -54q-119 0 -184 71t-65 195q0 123 67.5 197t171.5 74q106 0 162.5 -63t56.5 -190q0 -8 -0.5 -21.5t-0.5 -14.5zM273 461q-117 0 -132 -152h250q-1 81 -31 116.5t-87 35.5zM148 567v29
l88 104h73l85 -104v-29h-57l-67 64l-69 -64h-53z" />
    <glyph glyph-name="edieresis" unicode="&#xeb;" horiz-adv-x="526" 
d="M491 242h-352q4 -90 43.5 -130.5t115.5 -40.5q86 0 145 48h33v-71q-79 -54 -193 -54q-119 0 -184 71t-65 195q0 123 67.5 197t171.5 74q106 0 162.5 -63t56.5 -190q0 -8 -0.5 -21.5t-0.5 -14.5zM273 461q-117 0 -132 -152h250q-1 81 -31 116.5t-87 35.5zM187 581
q-23 0 -40 16.5t-17 39.5t17 39.5t40 16.5t40 -16.5t17 -39.5t-17 -39.5t-40 -16.5zM353 581q-23 0 -39.5 16.5t-16.5 39.5t16.5 39.5t39.5 16.5t40 -16.5t17 -39.5t-17 -39.5t-40 -16.5z" />
    <glyph glyph-name="igrave" unicode="&#xec;" horiz-adv-x="240" 
d="M170 0h-102v523h57q30 0 37.5 -14t7.5 -64v-445zM155 567h-58l-94 100v33h103l49 -109v-24z" />
    <glyph glyph-name="iacute" unicode="&#xed;" horiz-adv-x="240" 
d="M140 567h-59v24l50 109h103v-33zM170 0h-102v523h57q30 0 37.5 -14t7.5 -64v-445z" />
    <glyph glyph-name="icircumflex" unicode="&#xee;" horiz-adv-x="240" 
d="M-4 567v29l89 104h72l86 -104v-29h-58l-66 64l-69 -64h-54zM170 0h-102v523h57q30 0 37.5 -14t7.5 -64v-445z" />
    <glyph glyph-name="idieresis" unicode="&#xef;" horiz-adv-x="240" 
d="M37 581q-23 0 -40 16.5t-17 39.5t17 39.5t40 16.5t39.5 -16.5t16.5 -39.5t-16.5 -39.5t-39.5 -16.5zM203 581q-23 0 -39.5 16.5t-16.5 39.5t16.5 39.5t39.5 16.5t39.5 -16.5t16.5 -39.5t-16.5 -39.5t-39.5 -16.5zM170 0h-102v523h57q30 0 37.5 -14t7.5 -64v-445z" />
    <glyph glyph-name="eth" unicode="&#xf0;" horiz-adv-x="568" 
d="M181 538v20l60 50q-31 13 -76 23v69h36q61 -12 108 -34l39 33h70v-20l-51 -44q167 -112 167 -358q0 -139 -70 -211t-182 -72q-111 0 -179.5 71t-68.5 190q0 118 65 186.5t165 68.5q93 0 146 -64q-40 87 -110 133l-49 -41h-70zM287 71q68 0 105.5 47.5t37.5 135.5
q0 89 -37.5 137.5t-105.5 48.5t-108.5 -49t-40.5 -137q0 -87 40 -135t109 -48z" />
    <glyph glyph-name="ntilde" unicode="&#xf1;" horiz-adv-x="566" 
d="M131 523q20 0 28.5 -13t9.5 -53q94 74 200 74q134 0 134 -144v-387h-102v363q0 46 -19.5 64.5t-59.5 18.5q-64 0 -153 -52v-394h-102v523h64zM146 574v29q7 39 29 60.5t56 21.5q25 0 59.5 -16t44.5 -16q28 0 36 34h58v-30q-16 -82 -85 -82q-24 0 -58.5 16.5t-44.5 16.5
q-30 0 -36 -34h-59z" />
    <glyph glyph-name="ograve" unicode="&#xf2;" horiz-adv-x="568" 
d="M284 -6q-109 0 -179.5 72t-70.5 194q0 123 70.5 197t179.5 74t179.5 -74t70.5 -197q0 -122 -70.5 -194t-179.5 -72zM284 71q68 0 107 48t39 141t-39 143.5t-107 50.5q-67 0 -106.5 -50.5t-39.5 -143.5q0 -92 39 -140.5t107 -48.5zM314 567h-59l-94 100v33h103l50 -109
v-24z" />
    <glyph glyph-name="oacute" unicode="&#xf3;" horiz-adv-x="568" 
d="M314 567h-60v24l51 109h103v-33zM284 -6q-109 0 -179.5 72t-70.5 194q0 123 70.5 197t179.5 74t179.5 -74t70.5 -197q0 -122 -70.5 -194t-179.5 -72zM284 71q68 0 107 48t39 141t-39 143.5t-107 50.5q-67 0 -106.5 -50.5t-39.5 -143.5q0 -92 39 -140.5t107 -48.5z" />
    <glyph glyph-name="ocircumflex" unicode="&#xf4;" horiz-adv-x="568" 
d="M160 567v29l89 104h72l86 -104v-29h-58l-67 64l-68 -64h-54zM284 -6q-109 0 -179.5 72t-70.5 194q0 123 70.5 197t179.5 74t179.5 -74t70.5 -197q0 -122 -70.5 -194t-179.5 -72zM284 71q68 0 107 48t39 141t-39 143.5t-107 50.5q-67 0 -106.5 -50.5t-39.5 -143.5
q0 -92 39 -140.5t107 -48.5z" />
    <glyph glyph-name="otilde" unicode="&#xf5;" horiz-adv-x="568" 
d="M284 -6q-109 0 -179.5 72t-70.5 194q0 123 70.5 197t179.5 74t179.5 -74t70.5 -197q0 -122 -70.5 -194t-179.5 -72zM284 71q68 0 107 48t39 141t-39 143.5t-107 50.5q-67 0 -106.5 -50.5t-39.5 -143.5q0 -92 39 -140.5t107 -48.5zM142 574v29q8 39 30 60.5t55 21.5
q25 0 59.5 -16t44.5 -16q28 0 36 34h58v-30q-16 -82 -85 -82q-24 0 -58.5 16.5t-44.5 16.5q-30 0 -36 -34h-59z" />
    <glyph glyph-name="odieresis" unicode="&#xf6;" horiz-adv-x="568" 
d="M201 581q-23 0 -40 16.5t-17 39.5t17 39.5t40 16.5t39.5 -16.5t16.5 -39.5t-16.5 -39.5t-39.5 -16.5zM367 581q-23 0 -39.5 16.5t-16.5 39.5t16.5 39.5t39.5 16.5t39.5 -16.5t16.5 -39.5t-16.5 -39.5t-39.5 -16.5zM284 -6q-109 0 -179.5 72t-70.5 194q0 123 70.5 197
t179.5 74t179.5 -74t70.5 -197q0 -122 -70.5 -194t-179.5 -72zM284 71q68 0 107 48t39 141t-39 143.5t-107 50.5q-67 0 -106.5 -50.5t-39.5 -143.5q0 -92 39 -140.5t107 -48.5z" />
    <glyph glyph-name="divide" unicode="&#xf7;" horiz-adv-x="500" 
d="M466 303h-432v85h432v-85zM250 242q26 0 44.5 -18.5t18.5 -44.5t-18.5 -44t-44.5 -18t-43.5 18t-17.5 44t18 44.5t43 18.5zM250 574q26 0 44.5 -18.5t18.5 -44.5t-18.5 -44t-44.5 -18t-43.5 18t-17.5 44t18 44.5t43 18.5z" />
    <glyph glyph-name="oslash" unicode="&#xf8;" horiz-adv-x="568" 
d="M284 -6q-77 0 -136 37l-43 -56h-61v23l56 73q-66 71 -66 189q0 123 70.5 197t179.5 74q76 0 137 -39l39 50h62v-22l-53 -70q65 -75 65 -190q0 -122 -70.5 -194t-179.5 -72zM136 260q0 -70 20 -115l216 282q-35 28 -88 28q-67 0 -107.5 -51t-40.5 -144zM284 68
q68 0 108 49.5t40 142.5q0 68 -21 115l-215 -281q35 -26 88 -26z" />
    <glyph glyph-name="ugrave" unicode="&#xf9;" horiz-adv-x="572" 
d="M250 73q64 0 148 50v400h102v-523h-64q-19 0 -27 11t-10 48q-93 -66 -189 -66q-143 0 -143 140v390h102v-367q0 -47 20.5 -65t60.5 -18zM314 567h-58l-94 100v33h103l49 -109v-24z" />
    <glyph glyph-name="uacute" unicode="&#xfa;" horiz-adv-x="572" 
d="M250 73q64 0 148 50v400h102v-523h-64q-19 0 -27 11t-10 48q-93 -66 -189 -66q-143 0 -143 140v390h102v-367q0 -47 20.5 -65t60.5 -18zM314 567h-59v24l51 109h103v-33z" />
    <glyph glyph-name="ucircumflex" unicode="&#xfb;" horiz-adv-x="572" 
d="M250 73q64 0 148 50v400h102v-523h-64q-19 0 -27 11t-10 48q-93 -66 -189 -66q-143 0 -143 140v390h102v-367q0 -47 20.5 -65t60.5 -18zM161 567v29l88 104h73l86 -104v-29h-58l-67 64l-68 -64h-54z" />
    <glyph glyph-name="udieresis" unicode="&#xfc;" horiz-adv-x="572" 
d="M250 73q64 0 148 50v400h102v-523h-64q-19 0 -27 11t-10 48q-93 -66 -189 -66q-143 0 -143 140v390h102v-367q0 -47 20.5 -65t60.5 -18zM201 581q-23 0 -40 16.5t-17 39.5t17 39.5t40 16.5t39.5 -16.5t16.5 -39.5t-16.5 -39.5t-39.5 -16.5zM367 581q-23 0 -39.5 16.5
t-16.5 39.5t16.5 39.5t39.5 16.5t39.5 -16.5t16.5 -39.5t-16.5 -39.5t-39.5 -16.5z" />
    <glyph glyph-name="yacute" unicode="&#xfd;" horiz-adv-x="526" 
d="M151 -162v29l72 163l-196 465v28h96l149 -367h1l139 367h88v-28l-261 -657h-88zM302 567h-59v24l50 109h103v-33z" />
    <glyph glyph-name="thorn" unicode="&#xfe;" horiz-adv-x="569" 
d="M169 631v-175q75 75 170 75q83 0 139.5 -62.5t56.5 -195.5q0 -139 -64 -204.5t-157 -65.5q-88 0 -145 47v-212h-102v862h58q28 0 36 -12.5t8 -56.5zM303 449q-64 0 -134 -60v-265q46 -46 120 -46q142 0 142 185q0 186 -128 186z" />
    <glyph glyph-name="ydieresis" unicode="&#xff;" horiz-adv-x="526" 
d="M151 -162v29l72 163l-196 465v28h96l149 -367h1l139 367h88v-28l-261 -657h-88zM188 581q-23 0 -40 16.5t-17 39.5t17 39.5t40 16.5t40 -16.5t17 -39.5t-17 -39.5t-40 -16.5zM354 581q-23 0 -39.5 16.5t-16.5 39.5t16.5 39.5t39.5 16.5t40 -16.5t17 -39.5t-17 -39.5
t-40 -16.5z" />
    <glyph glyph-name="Amacron" unicode="&#x100;" horiz-adv-x="639" 
d="M31 0v33l231 667h116l230 -667v-33h-103l-65 196h-257l-63 -196h-89zM310 585l-101 -309h204l-101 309h-2zM439 814v-73h-244v73h244z" />
    <glyph glyph-name="amacron" unicode="&#x101;" horiz-adv-x="516" 
d="M413 0q-31 0 -43.5 11.5t-16.5 46.5q-59 -64 -156 -64q-74 0 -119 41t-45 115q0 78 55.5 118.5t147.5 40.5q58 0 114 -14v69q0 89 -105 89q-84 0 -143 -43h-32v76q90 45 188 45q96 0 145.5 -38t49.5 -122v-371h-40zM230 64q67 0 120 60v111q-48 10 -97 10
q-120 0 -120 -89q0 -47 26.5 -69.5t70.5 -22.5zM374 668v-72h-236v72h236z" />
    <glyph glyph-name="Abreve" unicode="&#x102;" horiz-adv-x="639" 
d="M31 0v33l231 667h116l230 -667v-33h-103l-65 196h-257l-63 -196h-89zM310 585l-101 -309h204l-101 309h-2zM316 724q-49 0 -81 25.5t-40 63.5v29h66q2 -21 16.5 -33.5t38.5 -12.5q50 0 57 46h66v-29q-8 -38 -40 -63.5t-83 -25.5z" />
    <glyph glyph-name="abreve" unicode="&#x103;" horiz-adv-x="516" 
d="M413 0q-31 0 -43.5 11.5t-16.5 46.5q-59 -64 -156 -64q-74 0 -119 41t-45 115q0 78 55.5 118.5t147.5 40.5q58 0 114 -14v69q0 89 -105 89q-84 0 -143 -43h-32v76q90 45 188 45q96 0 145.5 -38t49.5 -122v-371h-40zM230 64q67 0 120 60v111q-48 10 -97 10
q-120 0 -120 -89q0 -47 26.5 -69.5t70.5 -22.5zM257 568q-49 0 -81 28t-40 69v29h66q7 -54 55 -54q50 0 57 54h65v-29q-7 -41 -39 -69t-83 -28z" />
    <glyph glyph-name="Aogonek" unicode="&#x104;" horiz-adv-x="639" 
d="M559 -165q-40 0 -63.5 20t-23.5 54q0 52 58 91h-25l-65 196h-257l-63 -196h-89v33l231 667h116l230 -667v-33h-11q-45 -38 -45 -67q0 -34 42 -34h24v-51q-24 -13 -59 -13zM310 585l-101 -309h204l-101 309h-2z" />
    <glyph glyph-name="aogonek" unicode="&#x105;" horiz-adv-x="516" 
d="M404 -165q-41 0 -64.5 20t-23.5 54q0 28 18.5 54t45.5 42q-21 9 -27 53q-59 -64 -156 -64q-74 0 -119 41t-45 115q0 78 55.5 118.5t147.5 40.5q58 0 114 -14v69q0 89 -105 89q-84 0 -143 -43h-32v76q90 45 188 45q96 0 145.5 -38t49.5 -122v-371h-11q-45 -37 -45 -67
q0 -34 42 -34h24v-51q-26 -13 -59 -13zM230 64q67 0 120 60v111q-48 10 -97 10q-120 0 -120 -89q0 -47 26.5 -69.5t70.5 -22.5z" />
    <glyph glyph-name="Cacute" unicode="&#x106;" horiz-adv-x="613" 
d="M354 -6q-142 0 -226.5 94t-84.5 262q0 165 90 260.5t230 95.5q70 0 114 -13.5t88 -42.5v-85h-42q-60 58 -157 58t-154.5 -70t-57.5 -199q0 -137 53 -207.5t151 -70.5q106 0 180 76h35v-83q-86 -75 -219 -75zM313 722v25l42 95h103v-32l-86 -88h-59z" />
    <glyph glyph-name="cacute" unicode="&#x107;" horiz-adv-x="489" 
d="M303 567h-59v24l50 109h103v-33zM287 -6q-119 0 -186 71t-67 196q0 124 72.5 197t185.5 73q91 0 157 -42v-80h-42q-43 43 -116 43q-69 0 -111 -50.5t-42 -140.5q0 -93 40 -141t111 -48q81 0 127 50h38v-74q-67 -54 -167 -54z" />
    <glyph glyph-name="Ccircumflex" unicode="&#x108;" horiz-adv-x="613" 
d="M354 -6q-142 0 -226.5 94t-84.5 262q0 165 90 260.5t230 95.5q70 0 114 -13.5t88 -42.5v-85h-42q-60 58 -157 58t-154.5 -70t-57.5 -199q0 -137 53 -207.5t151 -70.5q106 0 180 76h35v-83q-86 -75 -219 -75zM223 722v29l88 94h72l85 -94v-29h-57l-66 54l-67 -54h-55z" />
    <glyph glyph-name="ccircumflex" unicode="&#x109;" horiz-adv-x="489" 
d="M150 567v29l88 104h73l85 -104v-29h-57l-67 64l-69 -64h-53zM287 -6q-119 0 -186 71t-67 196q0 124 72.5 197t185.5 73q91 0 157 -42v-80h-42q-43 43 -116 43q-69 0 -111 -50.5t-42 -140.5q0 -93 40 -141t111 -48q81 0 127 50h38v-74q-67 -54 -167 -54z" />
    <glyph glyph-name="Cdotaccent" unicode="&#x10a;" horiz-adv-x="613" 
d="M346 728q-24 0 -41.5 17t-17.5 41q0 25 17.5 42.5t41.5 17.5q25 0 42.5 -17.5t17.5 -42.5q0 -24 -17.5 -41t-42.5 -17zM354 -6q-142 0 -226.5 94t-84.5 262q0 165 90 260.5t230 95.5q70 0 114 -13.5t88 -42.5v-85h-42q-60 58 -157 58t-154.5 -70t-57.5 -199
q0 -137 53 -207.5t151 -70.5q106 0 180 76h35v-83q-86 -75 -219 -75z" />
    <glyph glyph-name="cdotaccent" unicode="&#x10b;" horiz-adv-x="489" 
d="M287 -6q-119 0 -186 71t-67 196q0 124 72.5 197t185.5 73q91 0 157 -42v-80h-42q-43 43 -116 43q-69 0 -111 -50.5t-42 -140.5q0 -93 40 -141t111 -48q81 0 127 50h38v-74q-67 -54 -167 -54zM273 581q-24 0 -41.5 17t-17.5 41q0 25 17.5 42.5t41.5 17.5t41.5 -17.5
t17.5 -42.5q0 -24 -17.5 -41t-41.5 -17z" />
    <glyph glyph-name="Ccaron" unicode="&#x10c;" horiz-adv-x="613" 
d="M354 -6q-142 0 -226.5 94t-84.5 262q0 165 90 260.5t230 95.5q70 0 114 -13.5t88 -42.5v-85h-42q-60 58 -157 58t-154.5 -70t-57.5 -199q0 -137 53 -207.5t151 -70.5q106 0 180 76h35v-83q-86 -75 -219 -75zM468 845v-29l-89 -94h-71l-85 94v29h57l66 -53l67 53h55z" />
    <glyph glyph-name="ccaron" unicode="&#x10d;" horiz-adv-x="489" 
d="M396 700v-29l-88 -104h-73l-85 104v29h57l67 -64l69 64h53zM287 -6q-119 0 -186 71t-67 196q0 124 72.5 197t185.5 73q91 0 157 -42v-80h-42q-43 43 -116 43q-69 0 -111 -50.5t-42 -140.5q0 -93 40 -141t111 -48q81 0 127 50h38v-74q-67 -54 -167 -54z" />
    <glyph glyph-name="Dcaron" unicode="&#x10e;" horiz-adv-x="668" 
d="M431 845v-29l-88 -94h-72l-85 94v29h57l67 -53l67 53h54zM77 0v700h200q174 0 262 -84t88 -264q0 -352 -353 -352h-197zM185 82h89q125 0 183 62.5t58 206.5q0 142 -57.5 204t-183.5 62h-89v-535z" />
    <glyph glyph-name="dcaron" unicode="&#x10f;" horiz-adv-x="572" 
d="M504 632v-632h-67q-18 0 -25 14t-9 57q-64 -77 -164 -77q-88 0 -145 65.5t-57 194.5q0 142 63 209.5t153 67.5q93 0 149 -54v223h56q30 0 38 -12t8 -56zM264 69q75 0 138 70v266q-47 44 -120 44q-61 0 -101.5 -42.5t-40.5 -147.5q0 -190 124 -190zM546 567l3 133h90v-33
l-39 -100h-54z" />
    <glyph glyph-name="Dcroat" unicode="&#x110;" horiz-adv-x="672" 
d="M17 309v81h64v310h200q174 0 262 -84t88 -264q0 -352 -353 -352h-197v309h-64zM189 82h89q125 0 183 62.5t58 206.5q0 142 -57.5 204t-183.5 62h-89v-227h171v-81h-171v-227z" />
    <glyph glyph-name="dcroat" unicode="&#x111;" horiz-adv-x="572" 
d="M504 647v-12h57v-65h-57v-570h-67q-18 0 -25 14t-9 57q-64 -77 -164 -77q-88 0 -145 65.5t-57 194.5q0 142 63 209.5t153 67.5q93 0 149 -54v93h-139v65h139v65h56q29 0 37.5 -10t8.5 -43zM264 69q75 0 138 70v266q-47 44 -120 44q-61 0 -101.5 -42.5t-40.5 -147.5
q0 -190 124 -190z" />
    <glyph glyph-name="Emacron" unicode="&#x112;" horiz-adv-x="556" 
d="M423 814v-73h-243v73h243zM77 0v700h429v-84h-321v-218h235v-80h-235v-236h332v-82h-440z" />
    <glyph glyph-name="emacron" unicode="&#x113;" horiz-adv-x="526" 
d="M491 242h-352q4 -90 43.5 -130.5t115.5 -40.5q86 0 145 48h33v-71q-79 -54 -193 -54q-119 0 -184 71t-65 195q0 123 67.5 197t171.5 74q106 0 162.5 -63t56.5 -190q0 -8 -0.5 -21.5t-0.5 -14.5zM273 461q-117 0 -132 -152h250q-1 81 -31 116.5t-87 35.5zM388 668v-72
h-236v72h236z" />
    <glyph glyph-name="Ebreve" unicode="&#x114;" horiz-adv-x="556" 
d="M301 724q-49 0 -81.5 25.5t-39.5 63.5v29h66q2 -21 16.5 -33.5t38.5 -12.5q49 0 56 46h66v-29q-8 -38 -40 -63.5t-82 -25.5zM77 0v700h429v-84h-321v-218h235v-80h-235v-236h332v-82h-440z" />
    <glyph glyph-name="ebreve" unicode="&#x115;" horiz-adv-x="526" 
d="M491 242h-352q4 -90 43.5 -130.5t115.5 -40.5q86 0 145 48h33v-71q-79 -54 -193 -54q-119 0 -184 71t-65 195q0 123 67.5 197t171.5 74q106 0 162.5 -63t56.5 -190q0 -8 -0.5 -21.5t-0.5 -14.5zM273 461q-117 0 -132 -152h250q-1 81 -31 116.5t-87 35.5zM270 568
q-49 0 -81.5 28t-39.5 69v29h66q5 -54 55 -54q49 0 56 54h66v-29q-8 -41 -40 -69t-82 -28z" />
    <glyph glyph-name="Edotaccent" unicode="&#x116;" horiz-adv-x="556" 
d="M302 728q-24 0 -41.5 17t-17.5 41q0 25 17.5 42.5t41.5 17.5t41.5 -17.5t17.5 -42.5q0 -24 -17.5 -41t-41.5 -17zM77 0v700h429v-84h-321v-218h235v-80h-235v-236h332v-82h-440z" />
    <glyph glyph-name="edotaccent" unicode="&#x117;" horiz-adv-x="526" 
d="M491 242h-352q4 -90 43.5 -130.5t115.5 -40.5q86 0 145 48h33v-71q-79 -54 -193 -54q-119 0 -184 71t-65 195q0 123 67.5 197t171.5 74q106 0 162.5 -63t56.5 -190q0 -8 -0.5 -21.5t-0.5 -14.5zM273 461q-117 0 -132 -152h250q-1 81 -31 116.5t-87 35.5zM271 581
q-24 0 -41.5 17t-17.5 41q0 25 17.5 42.5t41.5 17.5t41.5 -17.5t17.5 -42.5q0 -24 -17.5 -41t-41.5 -17z" />
    <glyph glyph-name="Eogonek" unicode="&#x118;" horiz-adv-x="556" 
d="M77 0v700h429v-84h-321v-218h235v-80h-235v-236h332v-82h-39q-44 -37 -44 -67q0 -34 42 -34h24v-51q-26 -13 -59 -13q-41 0 -64.5 20t-23.5 54q0 52 58 91h-334z" />
    <glyph glyph-name="eogonek" unicode="&#x119;" horiz-adv-x="526" 
d="M395 -10q-33 -31 -33 -57q0 -34 42 -34h24v-51q-26 -13 -59 -13q-41 0 -64 20t-23 54q0 50 58 89q-34 -4 -57 -4q-119 0 -184 71t-65 195q0 123 67.5 197t171.5 74q106 0 162.5 -63t56.5 -190q0 -8 -0.5 -21.5t-0.5 -14.5h-352q4 -90 43.5 -130.5t115.5 -40.5
q86 0 145 48h33v-71q-8 -6 -37.5 -25t-43.5 -33zM273 461q-117 0 -132 -152h250q-1 81 -31 116.5t-87 35.5z" />
    <glyph glyph-name="Ecaron" unicode="&#x11a;" horiz-adv-x="556" 
d="M423 845v-29l-88 -94h-72l-84 94v29h56l67 -53l67 53h54zM77 0v700h429v-84h-321v-218h235v-80h-235v-236h332v-82h-440z" />
    <glyph glyph-name="ecaron" unicode="&#x11b;" horiz-adv-x="526" 
d="M491 242h-352q4 -90 43.5 -130.5t115.5 -40.5q86 0 145 48h33v-71q-79 -54 -193 -54q-119 0 -184 71t-65 195q0 123 67.5 197t171.5 74q106 0 162.5 -63t56.5 -190q0 -8 -0.5 -21.5t-0.5 -14.5zM273 461q-117 0 -132 -152h250q-1 81 -31 116.5t-87 35.5zM394 700v-29
l-88 -104h-73l-85 104v29h57l67 -64l69 64h53z" />
    <glyph glyph-name="Gcircumflex" unicode="&#x11c;" horiz-adv-x="661" 
d="M358 -6q-150 0 -234 92t-84 264q0 171 89.5 263.5t240.5 92.5q108 0 197 -47v-90h-39q-60 53 -156 53q-103 0 -160 -65.5t-57 -202.5q0 -281 203 -281q75 0 127 25v181h-117v76h225v-307q-100 -54 -235 -54zM231 722v29l87 94h73l85 -94v-29h-58l-66 54l-67 -54h-54z" />
    <glyph glyph-name="gcircumflex" unicode="&#x11d;" horiz-adv-x="571" 
d="M504 523v-505q0 -90 -64.5 -138t-176.5 -48q-124 0 -201 44v77h33q59 -45 154 -45q153 0 153 117v56q-65 -68 -161 -68q-87 0 -145.5 61.5t-58.5 186.5q0 137 64 203.5t156 66.5q93 0 152 -57q11 49 48 49h47zM268 88q71 0 134 65v250q-49 46 -120 46q-61 0 -101.5 -40.5
t-40.5 -139.5t33.5 -140t94.5 -41zM156 567v29l89 104h72l86 -104v-29h-57l-67 64l-69 -64h-54z" />
    <glyph glyph-name="Gbreve" unicode="&#x11e;" horiz-adv-x="661" 
d="M352 724q-49 0 -81 25.5t-40 63.5v29h66q2 -21 16.5 -33.5t38.5 -12.5q50 0 57 46h66v-29q-8 -38 -40 -63.5t-83 -25.5zM358 -6q-150 0 -234 92t-84 264q0 171 89.5 263.5t240.5 92.5q108 0 197 -47v-90h-39q-60 53 -156 53q-103 0 -160 -65.5t-57 -202.5
q0 -281 203 -281q75 0 127 25v181h-117v76h225v-307q-100 -54 -235 -54z" />
    <glyph glyph-name="gbreve" unicode="&#x11f;" horiz-adv-x="571" 
d="M504 523v-505q0 -90 -64.5 -138t-176.5 -48q-124 0 -201 44v77h33q59 -45 154 -45q153 0 153 117v56q-65 -68 -161 -68q-87 0 -145.5 61.5t-58.5 186.5q0 137 64 203.5t156 66.5q93 0 152 -57q11 49 48 49h47zM268 88q71 0 134 65v250q-49 46 -120 46q-61 0 -101.5 -40.5
t-40.5 -139.5t33.5 -140t94.5 -41zM279 568q-49 0 -81.5 28t-40.5 69v29h66q7 -54 56 -54t56 54h66v-29q-8 -41 -40 -69t-82 -28z" />
    <glyph glyph-name="Gdotaccent" unicode="&#x120;" horiz-adv-x="661" 
d="M353 728q-24 0 -42 17t-18 41q0 25 18 42.5t42 17.5t42 -17.5t18 -42.5q0 -24 -18 -41t-42 -17zM358 -6q-150 0 -234 92t-84 264q0 171 89.5 263.5t240.5 92.5q108 0 197 -47v-90h-39q-60 53 -156 53q-103 0 -160 -65.5t-57 -202.5q0 -281 203 -281q75 0 127 25v181h-117
v76h225v-307q-100 -54 -235 -54z" />
    <glyph glyph-name="gdotaccent" unicode="&#x121;" horiz-adv-x="571" 
d="M504 523v-505q0 -90 -64.5 -138t-176.5 -48q-124 0 -201 44v77h33q59 -45 154 -45q153 0 153 117v56q-65 -68 -161 -68q-87 0 -145.5 61.5t-58.5 186.5q0 137 64 203.5t156 66.5q93 0 152 -57q11 49 48 49h47zM268 88q71 0 134 65v250q-49 46 -120 46q-61 0 -101.5 -40.5
t-40.5 -139.5t33.5 -140t94.5 -41zM280 581q-24 0 -42 17t-18 41q0 25 18 42.5t42 17.5t41.5 -17.5t17.5 -42.5q0 -24 -17.5 -41t-41.5 -17z" />
    <glyph glyph-name="Gcommaaccent" unicode="&#x122;" horiz-adv-x="661" 
d="M302 -201v46q38 6 38 28q0 4 -2 7.5t-4 5t-6.5 4t-6.5 3.5q-17 14 -17 38q0 19 13.5 31.5t33.5 12.5q23 0 38 -15.5t15 -47.5q0 -101 -102 -113zM358 -6q-150 0 -234 92t-84 264q0 171 89.5 263.5t240.5 92.5q108 0 197 -47v-90h-39q-60 53 -156 53q-103 0 -160 -65.5
t-57 -202.5q0 -281 203 -281q75 0 127 25v181h-117v76h225v-307q-100 -54 -235 -54z" />
    <glyph glyph-name="gcommaaccent" unicode="&#x123;" horiz-adv-x="571" 
d="M504 523v-505q0 -90 -64.5 -138t-176.5 -48q-124 0 -201 44v77h33q59 -45 154 -45q153 0 153 117v56q-65 -68 -161 -68q-87 0 -145.5 61.5t-58.5 186.5q0 137 64 203.5t156 66.5q93 0 152 -57q11 49 48 49h47zM268 88q71 0 134 65v250q-49 46 -120 46q-61 0 -101.5 -40.5
t-40.5 -139.5t33.5 -140t94.5 -41zM332 755v-46q-38 -6 -38 -28q0 -4 2 -7.5t4 -5t6.5 -4t6.5 -3.5q17 -14 17 -38q0 -19 -13.5 -31.5t-34.5 -12.5q-23 0 -37.5 15.5t-14.5 47.5q0 101 102 113z" />
    <glyph glyph-name="Hcircumflex" unicode="&#x124;" horiz-adv-x="681" 
d="M185 0h-108v700h108v-300h311v300h109v-700h-109v318h-311v-318zM217 722v29l88 94h73l84 -94v-29h-57l-66 54l-67 -54h-55z" />
    <glyph glyph-name="hcircumflex" unicode="&#x125;" horiz-adv-x="566" 
d="M169 632v-175q94 74 200 74q134 0 134 -144v-387h-102v363q0 46 -19.5 64.5t-59.5 18.5q-64 0 -153 -52v-394h-102v700h56q29 0 37.5 -12t8.5 -56zM163 725v29l88 104h73l86 -104v-29h-58l-67 64l-68 -64h-54z" />
    <glyph glyph-name="Hbar" unicode="&#x126;" horiz-adv-x="681" 
d="M13 506v74h64v120h108v-120h311v120h109v-120h64v-74h-64v-506h-109v318h-311v-318h-108v506h-64zM185 400h311v106h-311v-106z" />
    <glyph glyph-name="hbar" unicode="&#x127;" horiz-adv-x="566" 
d="M169 647v-12h139v-65h-139v-113q94 74 200 74q134 0 134 -144v-387h-102v363q0 46 -19.5 64.5t-59.5 18.5q-64 0 -153 -52v-394h-102v570h-57v65h57v65h56q29 0 37.5 -10t8.5 -43z" />
    <glyph glyph-name="Imacron" unicode="&#x12a;" horiz-adv-x="268" 
d="M189 0h-110v700h110v-700zM256 814v-73h-243v73h243z" />
    <glyph glyph-name="imacron" unicode="&#x12b;" horiz-adv-x="240" 
d="M170 0h-102v523h57q30 0 37.5 -14t7.5 -64v-445zM223 668v-72h-207v72h207z" />
    <glyph glyph-name="Iogonek" unicode="&#x12e;" horiz-adv-x="268" 
d="M141 -165q-40 0 -63.5 20t-23.5 54q0 52 58 91h-33v700h110v-700h-10q-45 -38 -45 -67q0 -34 42 -34h24v-51q-24 -13 -59 -13z" />
    <glyph glyph-name="iogonek" unicode="&#x12f;" horiz-adv-x="240" 
d="M123 -165q-40 0 -63.5 20t-23.5 54q0 52 58 91h-26v523h57q30 0 37.5 -14t7.5 -64v-445h-9q-44 -37 -44 -67q0 -34 41 -34h25v-51q-26 -13 -60 -13zM120 581q-24 0 -42 17t-18 41q0 25 18 42.5t42 17.5t42 -17.5t18 -42.5q0 -24 -18 -41t-42 -17z" />
    <glyph glyph-name="Idotaccent" unicode="&#x130;" horiz-adv-x="268" 
d="M189 0h-110v700h110v-700zM134 728q-24 0 -41.5 17t-17.5 41q0 25 17.5 42.5t41.5 17.5t41.5 -17.5t17.5 -42.5q0 -24 -17.5 -41t-41.5 -17z" />
    <glyph glyph-name="dotlessi" unicode="&#x131;" horiz-adv-x="240" 
d="M170 0h-102v523h57q30 0 37.5 -14t7.5 -64v-445z" />
    <glyph glyph-name="Jcircumflex" unicode="&#x134;" horiz-adv-x="442" 
d="M168 -7q-84 0 -144 37v83h38q39 -37 101 -37q96 0 96 100v524h110v-526q0 -88 -50.5 -134.5t-150.5 -46.5zM189 722v29l88 94h72l85 -94v-29h-57l-66 54l-67 -54h-55z" />
    <glyph glyph-name="jcircumflex" unicode="&#x135;" horiz-adv-x="240" 
d="M-25 -158v63h29q35 0 49.5 17t14.5 55v546h57q29 0 37 -14t8 -64v-474q0 -137 -132 -137q-39 0 -63 8zM-5 567v29l89 104h72l86 -104v-29h-57l-67 64l-69 -64h-54z" />
    <glyph glyph-name="Kcommaaccent" unicode="&#x136;" horiz-adv-x="632" 
d="M272 -201v46q38 6 38 28q0 4 -2 7.5t-4 5t-6.5 4t-6.5 3.5q-17 14 -17 38q0 19 13.5 31.5t33.5 12.5q23 0 38 -15.5t15 -47.5q0 -101 -102 -113zM77 0v700h108v-348l303 348h88v-33l-220 -249l244 -385v-33h-101l-214 339l-100 -109v-230h-108z" />
    <glyph glyph-name="kcommaaccent" unicode="&#x137;" horiz-adv-x="516" 
d="M169 632v-356l215 247h84v-30l-162 -180l179 -282v-31h-92l-155 242l-69 -75v-167h-102v700h56q29 0 37.5 -12.5t8.5 -55.5zM222 -201v46q38 6 38 28q0 5 -2 8.5t-8.5 7t-7.5 4.5q-18 13 -18 38q0 19 14 31.5t34 12.5q23 0 37.5 -15.5t14.5 -47.5q0 -101 -102 -113z" />
    <glyph glyph-name="Lacute" unicode="&#x139;" horiz-adv-x="535" 
d="M98 722v25l43 95h103v-32l-87 -88h-59zM497 0h-420v700h108v-618h312v-82z" />
    <glyph glyph-name="lacute" unicode="&#x13a;" horiz-adv-x="239" 
d="M145 725h-59v24l50 109h103v-33zM171 0h-103v700h57q30 0 38 -12t8 -56v-632z" />
    <glyph glyph-name="Lcommaaccent" unicode="&#x13b;" horiz-adv-x="535" 
d="M242 -201v46q38 6 38 28q0 4 -2 7.5t-4 5t-6.5 4t-6.5 3.5q-17 13 -17 38q0 19 13.5 31.5t33.5 12.5q23 0 38 -15.5t15 -47.5q0 -101 -102 -113zM497 0h-420v700h108v-618h312v-82z" />
    <glyph glyph-name="lcommaaccent" unicode="&#x13c;" horiz-adv-x="239" 
d="M69 -201v46q38 6 38 28q0 4 -2 7.5t-4 5t-6.5 4t-6.5 3.5q-17 14 -17 38q0 19 13.5 31.5t34.5 12.5q23 0 37.5 -15.5t14.5 -47.5q0 -101 -102 -113zM171 0h-103v700h57q30 0 38 -12t8 -56v-632z" />
    <glyph glyph-name="Lcaron" unicode="&#x13d;" horiz-adv-x="535" 
d="M297 567l3 133h93v-33l-42 -100h-54zM497 0h-420v700h108v-618h312v-82z" />
    <glyph glyph-name="lcaron" unicode="&#x13e;" horiz-adv-x="239" 
d="M213 567l3 133h90v-33l-40 -100h-53zM171 0h-103v700h57q30 0 38 -12t8 -56v-632z" />
    <glyph glyph-name="Lslash" unicode="&#x141;" horiz-adv-x="545" 
d="M507 0h-421v245l-73 -30v80l73 30v375h109v-329l200 84v-79l-200 -85v-209h312v-82z" />
    <glyph glyph-name="lslash" unicode="&#x142;" horiz-adv-x="249" 
d="M175 0h-102v326l-65 -40v80l65 40v294h57q29 0 37 -12t8 -56v-162l68 42v-80l-68 -42v-390z" />
    <glyph glyph-name="Nacute" unicode="&#x143;" horiz-adv-x="679" 
d="M319 722v25l43 95h103v-32l-86 -88h-60zM77 0v700h125l305 -515h2v515h94v-700h-100l-331 561h-2v-561h-93z" />
    <glyph glyph-name="nacute" unicode="&#x144;" horiz-adv-x="566" 
d="M131 523q20 0 28.5 -13t9.5 -53q94 74 200 74q134 0 134 -144v-387h-102v363q0 46 -19.5 64.5t-59.5 18.5q-64 0 -153 -52v-394h-102v523h64zM318 567h-59v24l51 109h102v-33z" />
    <glyph glyph-name="Ncommaaccent" unicode="&#x145;" horiz-adv-x="679" 
d="M284 -201v46q38 6 38 28q0 4 -2 7.5t-3.5 4.5l-6 4t-6.5 4q-18 13 -18 38q0 19 14 31.5t34 12.5q23 0 37.5 -15.5t14.5 -47.5q0 -101 -102 -113zM77 0v700h125l305 -515h2v515h94v-700h-100l-331 561h-2v-561h-93z" />
    <glyph glyph-name="ncommaaccent" unicode="&#x146;" horiz-adv-x="566" 
d="M131 523q20 0 28.5 -13t9.5 -53q94 74 200 74q134 0 134 -144v-387h-102v363q0 46 -19.5 64.5t-59.5 18.5q-64 0 -153 -52v-394h-102v523h64zM237 -201v46q38 6 38 28q0 4 -2 7.5t-4 5t-6.5 4t-6.5 3.5q-17 14 -17 38q0 19 13.5 31.5t33.5 12.5q23 0 38 -15.5t15 -47.5
q0 -101 -102 -113z" />
    <glyph glyph-name="Ncaron" unicode="&#x147;" horiz-adv-x="679" 
d="M475 845v-29l-89 -94h-72l-84 94v29h56l67 -53l67 53h55zM77 0v700h125l305 -515h2v515h94v-700h-100l-331 561h-2v-561h-93z" />
    <glyph glyph-name="ncaron" unicode="&#x148;" horiz-adv-x="566" 
d="M131 523q20 0 28.5 -13t9.5 -53q94 74 200 74q134 0 134 -144v-387h-102v363q0 46 -19.5 64.5t-59.5 18.5q-64 0 -153 -52v-394h-102v523h64zM411 700v-29l-89 -104h-73l-85 104v29h57l67 -64l69 64h54z" />
    <glyph glyph-name="Omacron" unicode="&#x14c;" horiz-adv-x="714" 
d="M478 814v-73h-243v73h243zM357 -6q-135 0 -226 94.5t-91 261.5q0 166 91.5 261t225.5 95t225 -95t91 -261t-91 -261t-225 -95zM357 74q92 0 148.5 70t56.5 204q0 135 -56.5 206t-148.5 71t-148.5 -71t-56.5 -206t56 -204.5t149 -69.5z" />
    <glyph glyph-name="omacron" unicode="&#x14d;" horiz-adv-x="568" 
d="M402 668v-72h-236v72h236zM284 -6q-109 0 -179.5 72t-70.5 194q0 123 70.5 197t179.5 74t179.5 -74t70.5 -197q0 -122 -70.5 -194t-179.5 -72zM284 71q68 0 107 48t39 141t-39 143.5t-107 50.5q-67 0 -106.5 -50.5t-39.5 -143.5q0 -92 39 -140.5t107 -48.5z" />
    <glyph glyph-name="Ohungarumlaut" unicode="&#x150;" horiz-adv-x="714" 
d="M357 -6q-135 0 -226 94.5t-91 261.5q0 166 91.5 261t225.5 95t225 -95t91 -261t-91 -261t-225 -95zM357 74q92 0 148.5 70t56.5 204q0 135 -56.5 206t-148.5 71t-148.5 -71t-56.5 -206t56 -204.5t149 -69.5zM255 722v22l34 98h86v-32l-62 -88h-58zM395 722v22l34 98h84
v-32l-61 -88h-57z" />
    <glyph glyph-name="ohungarumlaut" unicode="&#x151;" horiz-adv-x="568" 
d="M185 567v21l38 112h85v-33l-66 -100h-57zM324 567v21l39 112h84v-33l-66 -100h-57zM284 -6q-109 0 -179.5 72t-70.5 194q0 123 70.5 197t179.5 74t179.5 -74t70.5 -197q0 -122 -70.5 -194t-179.5 -72zM284 71q68 0 107 48t39 141t-39 143.5t-107 50.5q-67 0 -106.5 -50.5
t-39.5 -143.5q0 -92 39 -140.5t107 -48.5z" />
    <glyph glyph-name="OE" unicode="&#x152;" horiz-adv-x="939" 
d="M390 0q-173 0 -261.5 84.5t-88.5 263.5q0 352 353 352h496v-84h-313v-218h226v-80h-226v-236h324v-82h-510zM467 616h-74q-125 0 -183 -62t-58 -205q0 -142 58 -204.5t183 -62.5h74v534z" />
    <glyph glyph-name="oe" unicode="&#x153;" horiz-adv-x="921" 
d="M284 -6q-109 0 -179.5 72t-70.5 194q0 123 70.5 197t179.5 74q132 0 196 -105q61 105 189 105q105 0 162 -63t57 -190q0 -8 -1 -21.5t-1 -14.5h-352q4 -90 44 -130.5t116 -40.5q88 0 143 48h35v-71q-81 -54 -193 -54q-141 0 -200 100q-63 -100 -195 -100zM284 69
q68 0 107 49t39 142t-39 143t-107 50q-67 0 -106.5 -50t-39.5 -143t39 -142t107 -49zM669 461q-118 0 -133 -152h251q-4 152 -118 152z" />
    <glyph glyph-name="Racute" unicode="&#x154;" horiz-adv-x="613" 
d="M472 0l-154 293q-10 -1 -33 -1h-99v-292h-108v700h207q120 0 185 -49.5t65 -149.5q0 -140 -115 -187l151 -281v-33h-99zM186 617v-245h96q73 0 108 29t35 94q0 122 -143 122h-96zM259 722v25l43 95h103v-32l-87 -88h-59z" />
    <glyph glyph-name="racute" unicode="&#x155;" horiz-adv-x="375" 
d="M324 441q-88 0 -155 -59v-382h-102v523h64q20 0 28.5 -14t9.5 -58q67 77 150 77q16 0 28 -4v-84q-19 1 -23 1zM243 567h-59v24l50 109h103v-33z" />
    <glyph glyph-name="Rcommaaccent" unicode="&#x156;" horiz-adv-x="613" 
d="M472 0l-154 293q-10 -1 -33 -1h-99v-292h-108v700h207q120 0 185 -49.5t65 -149.5q0 -140 -115 -187l151 -281v-33h-99zM186 617v-245h96q73 0 108 29t35 94q0 122 -143 122h-96zM259 -201v46q38 6 38 28q0 5 -2 8.5t-8.5 7t-7.5 4.5q-18 13 -18 38q0 19 14 31.5t34 12.5
q23 0 37.5 -15.5t14.5 -47.5q0 -101 -102 -113z" />
    <glyph glyph-name="rcommaaccent" unicode="&#x157;" horiz-adv-x="372" 
d="M324 441q-88 0 -155 -59v-382h-102v523h64q20 0 28.5 -14t9.5 -58q67 77 150 77q16 0 28 -4v-84q-19 1 -23 1zM65 -201v46q38 6 38 28q0 5 -2 8.5t-8.5 7t-7.5 4.5q-18 13 -18 38q0 19 14 31.5t34 12.5q23 0 37.5 -15.5t14.5 -47.5q0 -101 -102 -113z" />
    <glyph glyph-name="Rcaron" unicode="&#x158;" horiz-adv-x="613" 
d="M472 0l-154 293q-10 -1 -33 -1h-99v-292h-108v700h207q120 0 185 -49.5t65 -149.5q0 -140 -115 -187l151 -281v-33h-99zM186 617v-245h96q73 0 108 29t35 94q0 122 -143 122h-96zM414 845v-29l-88 -94h-72l-84 94v29h56l67 -53l67 53h54z" />
    <glyph glyph-name="rcaron" unicode="&#x159;" horiz-adv-x="372" 
d="M324 441q-88 0 -155 -59v-382h-102v523h64q20 0 28.5 -14t9.5 -58q67 77 150 77q16 0 28 -4v-84q-19 1 -23 1zM336 700v-29l-88 -104h-73l-86 104v29h58l67 -64l68 64h54z" />
    <glyph glyph-name="Sacute" unicode="&#x15a;" horiz-adv-x="520" 
d="M229 722v25l43 95h103v-32l-87 -88h-59zM242 -6q-125 0 -213 59v88h38q60 -64 172 -64q144 0 144 113q0 13 -2.5 24t-5 19.5t-10.5 17t-12.5 13.5t-16.5 11.5t-17.5 9t-21.5 8t-22 7.5t-25.5 7t-25.5 7q-97 28 -141 72.5t-44 126.5q0 91 60 142t163 51q113 0 186 -47v-85
h-37q-61 49 -145 49q-132 0 -132 -102q0 -50 32 -72.5t106 -41.5q115 -31 163 -73.5t48 -132.5q0 -101 -63 -154t-178 -53z" />
    <glyph glyph-name="sacute" unicode="&#x15b;" horiz-adv-x="443" 
d="M252 567h-59v24l51 109h102v-33zM209 -5q-101 0 -171 46v79h33q49 -47 133 -47q109 0 109 76q0 33 -23.5 49.5t-86.5 26.5q-83 12 -124 46.5t-41 104.5q0 73 50.5 113t137.5 40q89 0 154 -37v-78h-33q-46 37 -120 37q-98 0 -98 -67q0 -31 24.5 -46.5t86.5 -24.5
q89 -13 129 -47.5t40 -107.5q0 -77 -50 -120t-150 -43z" />
    <glyph glyph-name="Scircumflex" unicode="&#x15c;" horiz-adv-x="520" 
d="M140 722v29l87 94h73l84 -94v-29h-57l-66 54l-67 -54h-54zM242 -6q-125 0 -213 59v88h38q60 -64 172 -64q144 0 144 113q0 13 -2.5 24t-5 19.5t-10.5 17t-12.5 13.5t-16.5 11.5t-17.5 9t-21.5 8t-22 7.5t-25.5 7t-25.5 7q-97 28 -141 72.5t-44 126.5q0 91 60 142t163 51
q113 0 186 -47v-85h-37q-61 49 -145 49q-132 0 -132 -102q0 -50 32 -72.5t106 -41.5q115 -31 163 -73.5t48 -132.5q0 -101 -63 -154t-178 -53z" />
    <glyph glyph-name="scircumflex" unicode="&#x15d;" horiz-adv-x="443" 
d="M98 567v29l88 104h73l86 -104v-29h-58l-67 64l-68 -64h-54zM209 -5q-101 0 -171 46v79h33q49 -47 133 -47q109 0 109 76q0 33 -23.5 49.5t-86.5 26.5q-83 12 -124 46.5t-41 104.5q0 73 50.5 113t137.5 40q89 0 154 -37v-78h-33q-46 37 -120 37q-98 0 -98 -67
q0 -31 24.5 -46.5t86.5 -24.5q89 -13 129 -47.5t40 -107.5q0 -77 -50 -120t-150 -43z" />
    <glyph glyph-name="Scedilla" unicode="&#x15e;" horiz-adv-x="520" 
d="M483 201q0 -94 -55.5 -147t-156.5 -59v-26q77 -3 77 -71q0 -34 -25.5 -53.5t-66.5 -19.5q-39 0 -73 18v48h25q13 -15 39 -15q34 0 34 24q0 25 -41 25h-23v70q-108 4 -188 58v88h38q60 -64 172 -64q144 0 144 113q0 13 -2.5 24t-5 19.5t-10.5 17t-12.5 13.5t-16.5 11.5
t-17.5 9t-21.5 8t-22 7.5t-25.5 7t-25.5 7q-97 28 -141 72.5t-44 126.5q0 91 60 142t163 51q113 0 186 -47v-85h-37q-61 49 -145 49q-132 0 -132 -102q0 -50 32 -72.5t106 -41.5q115 -31 163 -73.5t48 -132.5z" />
    <glyph glyph-name="scedilla" unicode="&#x15f;" horiz-adv-x="443" 
d="M409 158q0 -72 -43.5 -114t-130.5 -48v-27q78 -3 78 -71q0 -34 -25.5 -53.5t-67.5 -19.5q-40 0 -72 18v48h25q13 -15 39 -15q34 0 34 24q0 25 -41 25h-23v71q-85 5 -144 45v79h33q49 -47 133 -47q109 0 109 76q0 33 -23.5 49.5t-86.5 26.5q-83 12 -124 46.5t-41 104.5
q0 73 50.5 113t137.5 40q89 0 154 -37v-78h-33q-46 37 -120 37q-98 0 -98 -67q0 -31 24.5 -46.5t86.5 -24.5q89 -13 129 -47.5t40 -107.5z" />
    <glyph glyph-name="Scaron" unicode="&#x160;" horiz-adv-x="520" 
d="M381 845v-29l-88 -94h-72l-84 94v29h56l67 -53l67 53h54zM242 -6q-125 0 -213 59v88h38q60 -64 172 -64q144 0 144 113q0 13 -2.5 24t-5 19.5t-10.5 17t-12.5 13.5t-16.5 11.5t-17.5 9t-21.5 8t-22 7.5t-25.5 7t-25.5 7q-97 28 -141 72.5t-44 126.5q0 91 60 142t163 51
q113 0 186 -47v-85h-37q-61 49 -145 49q-132 0 -132 -102q0 -50 32 -72.5t106 -41.5q115 -31 163 -73.5t48 -132.5q0 -101 -63 -154t-178 -53z" />
    <glyph glyph-name="scaron" unicode="&#x161;" horiz-adv-x="443" 
d="M345 700v-29l-89 -104h-72l-86 104v29h57l67 -64l69 64h54zM209 -5q-101 0 -171 46v79h33q49 -47 133 -47q109 0 109 76q0 33 -23.5 49.5t-86.5 26.5q-83 12 -124 46.5t-41 104.5q0 73 50.5 113t137.5 40q89 0 154 -37v-78h-33q-46 37 -120 37q-98 0 -98 -67
q0 -31 24.5 -46.5t86.5 -24.5q89 -13 129 -47.5t40 -107.5q0 -77 -50 -120t-150 -43z" />
    <glyph glyph-name="Tcommaaccent" unicode="&#x162;" horiz-adv-x="570" 
d="M233 -201v46q38 6 38 28q0 4 -2 7.5t-4 5t-6.5 4t-6.5 3.5q-17 14 -17 38q0 19 13.5 31.5t33.5 12.5q23 0 38 -15.5t15 -47.5q0 -101 -102 -113zM339 0h-109v618h-201v82h511v-82h-201v-618z" />
    <glyph glyph-name="tcommaaccent" unicode="&#x163;" horiz-adv-x="332" 
d="M141 -201v46q38 6 38 28q0 4 -2 7.5t-4 5t-6.5 4t-6.5 3.5q-17 14 -17 38q0 19 13.5 31.5t33.5 12.5q23 0 38 -15.5t15 -47.5q0 -101 -102 -113zM20 451v72h63v142h102v-142h116v-72h-116v-310q0 -40 17.5 -55.5t57.5 -15.5h47v-66q-38 -10 -83 -10q-141 0 -141 135v322
h-63z" />
    <glyph glyph-name="Tcaron" unicode="&#x164;" horiz-adv-x="570" 
d="M406 845v-29l-89 -94h-71l-85 94v29h56l67 -53l67 53h55zM339 0h-109v618h-201v82h511v-82h-201v-618z" />
    <glyph glyph-name="tcaron" unicode="&#x165;" horiz-adv-x="332" 
d="M286 567h-53l4 133h90v-33zM20 451v72h63v142h102v-142h116v-72h-116v-310q0 -40 17.5 -55.5t57.5 -15.5h47v-66q-38 -10 -83 -10q-141 0 -141 135v322h-63z" />
    <glyph glyph-name="Umacron" unicode="&#x16a;" horiz-adv-x="674" 
d="M464 814v-73h-244v73h244zM349 80q76 0 115.5 39t39.5 136v445h97v-442q0 -264 -258 -264q-127 0 -198.5 67t-71.5 197v442h109v-445q0 -98 43 -136.5t124 -38.5z" />
    <glyph glyph-name="umacron" unicode="&#x16b;" horiz-adv-x="572" 
d="M250 73q64 0 148 50v400h102v-523h-64q-19 0 -27 11t-10 48q-93 -66 -189 -66q-143 0 -143 140v390h102v-367q0 -47 20.5 -65t60.5 -18zM402 668v-72h-236v72h236z" />
    <glyph glyph-name="Ubreve" unicode="&#x16c;" horiz-adv-x="674" 
d="M342 724q-49 0 -81.5 25.5t-40.5 63.5v29h66q2 -21 17 -33.5t39 -12.5q49 0 56 46h66v-29q-8 -38 -40 -63.5t-82 -25.5zM349 80q76 0 115.5 39t39.5 136v445h97v-442q0 -264 -258 -264q-127 0 -198.5 67t-71.5 197v442h109v-445q0 -98 43 -136.5t124 -38.5z" />
    <glyph glyph-name="ubreve" unicode="&#x16d;" horiz-adv-x="572" 
d="M250 73q64 0 148 50v400h102v-523h-64q-19 0 -27 11t-10 48q-93 -66 -189 -66q-143 0 -143 140v390h102v-367q0 -47 20.5 -65t60.5 -18zM283 568q-49 0 -81 28t-40 69v29h66q7 -54 55 -54q50 0 57 54h66v-29q-8 -41 -40.5 -69t-82.5 -28z" />
    <glyph glyph-name="Uring" unicode="&#x16e;" horiz-adv-x="674" 
d="M342 695q-40 0 -67.5 26t-27.5 68t28 68t67 26q40 0 68 -26t28 -68t-28 -68t-68 -26zM342 745q18 0 29.5 12t11.5 32t-11.5 32.5t-29.5 12.5t-29.5 -12.5t-11.5 -32.5t11.5 -32t29.5 -12zM349 80q76 0 115.5 39t39.5 136v445h97v-442q0 -264 -258 -264q-127 0 -198.5 67
t-71.5 197v442h109v-445q0 -98 43 -136.5t124 -38.5z" />
    <glyph glyph-name="uring" unicode="&#x16f;" horiz-adv-x="572" 
d="M250 73q64 0 148 50v400h102v-523h-64q-19 0 -27 11t-10 48q-93 -66 -189 -66q-143 0 -143 140v390h102v-367q0 -47 20.5 -65t60.5 -18zM283 570q-39 0 -67 25.5t-28 67.5t28 68.5t67 26.5q40 0 68.5 -26.5t28.5 -68.5t-28 -67.5t-69 -25.5zM283 619q19 0 30.5 12
t11.5 32t-11.5 32.5t-30.5 12.5q-17 0 -28.5 -12.5t-11.5 -32.5q0 -19 11.5 -31.5t28.5 -12.5z" />
    <glyph glyph-name="Uhungarumlaut" unicode="&#x170;" horiz-adv-x="674" 
d="M241 722v22l34 98h85v-32l-62 -88h-57zM380 722v22l34 98h85v-32l-61 -88h-58zM349 80q76 0 115.5 39t39.5 136v445h97v-442q0 -264 -258 -264q-127 0 -198.5 67t-71.5 197v442h109v-445q0 -98 43 -136.5t124 -38.5z" />
    <glyph glyph-name="uhungarumlaut" unicode="&#x171;" horiz-adv-x="572" 
d="M250 73q64 0 148 50v400h102v-523h-64q-19 0 -27 11t-10 48q-93 -66 -189 -66q-143 0 -143 140v390h102v-367q0 -47 20.5 -65t60.5 -18zM325 567v21l39 112h84v-33l-66 -100h-57zM185 567v21l39 112h85v-33l-66 -100h-58z" />
    <glyph glyph-name="Uogonek" unicode="&#x172;" horiz-adv-x="674" 
d="M378 -165q-41 0 -64.5 20t-23.5 54q0 49 52 86q-2 -1 -8 -1q-121 0 -191 67.5t-70 196.5v442h109v-445q0 -98 42.5 -136.5t123.5 -38.5q76 0 116 38t40 137v445h97v-442q0 -184 -128 -241q-11 -5 -28.5 -11t-29.5 -12t-22 -15q-22 -24 -22 -46q0 -34 41 -34h25v-51
q-26 -13 -59 -13z" />
    <glyph glyph-name="uogonek" unicode="&#x173;" horiz-adv-x="572" 
d="M449 -165q-40 0 -63.5 20t-23.5 54q0 52 59 92q-21 8 -22 58q-93 -66 -189 -66q-143 0 -143 140v390h102v-367q0 -47 20.5 -65t60.5 -18q64 0 148 50v400h102v-523h-13q-44 -37 -44 -67q0 -34 41 -34h24v-51q-24 -13 -59 -13z" />
    <glyph glyph-name="Ydieresis" unicode="&#x178;" horiz-adv-x="581" 
d="M217 727q-24 0 -41 16.5t-17 40.5q0 23 17 39.5t41 16.5q23 0 39.5 -16.5t16.5 -39.5q0 -24 -16.5 -40.5t-39.5 -16.5zM382 727q-23 0 -39.5 16.5t-16.5 40.5q0 23 16.5 39.5t39.5 16.5t40 -16.5t17 -39.5q0 -24 -17 -40.5t-40 -16.5zM349 0h-108v280l-214 385v35h99
l172 -317h1l168 317h87v-35l-205 -382v-283z" />
    <glyph glyph-name="Zacute" unicode="&#x179;" horiz-adv-x="541" 
d="M21 0v87l366 528v3h-340v82h456v-89l-367 -528v-3h362v-80h-477zM248 722v25l42 95h103v-32l-86 -88h-59z" />
    <glyph glyph-name="zacute" unicode="&#x17a;" horiz-adv-x="477" 
d="M280 567h-60v24l51 109h103v-33zM37 0v75l292 373h-274v75h388v-75l-293 -372h286v-76h-399z" />
    <glyph glyph-name="Zdotaccent" unicode="&#x17b;" horiz-adv-x="541" 
d="M285 728q-24 0 -41.5 17t-17.5 41q0 25 17.5 42.5t41.5 17.5t42 -17.5t18 -42.5q0 -24 -18 -41t-42 -17zM21 0v87l366 528v3h-340v82h456v-89l-367 -528v-3h362v-80h-477z" />
    <glyph glyph-name="zdotaccent" unicode="&#x17c;" horiz-adv-x="477" 
d="M37 0v75l292 373h-274v75h388v-75l-293 -372h286v-76h-399zM249 581q-24 0 -41.5 17t-17.5 41q0 25 17.5 42.5t41.5 17.5q25 0 42.5 -17.5t17.5 -42.5q0 -24 -17.5 -41t-42.5 -17z" />
    <glyph glyph-name="Zcaron" unicode="&#x17d;" horiz-adv-x="541" 
d="M408 845v-29l-89 -94h-71l-85 94v29h56l67 -53l67 53h55zM21 0v87l366 528v3h-340v82h456v-89l-367 -528v-3h362v-80h-477z" />
    <glyph glyph-name="zcaron" unicode="&#x17e;" horiz-adv-x="477" 
d="M372 700v-29l-89 -104h-72l-86 104v29h58l66 -64l69 64h54zM37 0v75l292 373h-274v75h388v-75l-293 -372h286v-76h-399z" />
    <glyph glyph-name="florin" unicode="&#x192;" horiz-adv-x="359" 
d="M37 437h71l15 131q17 139 153 139q39 0 70 -11v-64h-40q-35 0 -53.5 -15t-23.5 -53l-15 -127h96v-73h-105l-53 -458h-106l53 458h-62v73z" />
    <glyph glyph-name="Scommaaccent" unicode="&#x218;" horiz-adv-x="520" 
d="M205 -201v46q38 6 38 28q0 4 -2 7.5t-4 5t-6.5 4t-6.5 3.5q-17 14 -17 38q0 19 13.5 31.5t33.5 12.5q23 0 38 -15.5t15 -47.5q0 -101 -102 -113zM242 -6q-125 0 -213 59v88h38q60 -64 172 -64q144 0 144 113q0 13 -2.5 24t-5 19.5t-10.5 17t-12.5 13.5t-16.5 11.5
t-17.5 9t-21.5 8t-22 7.5t-25.5 7t-25.5 7q-97 28 -141 72.5t-44 126.5q0 91 60 142t163 51q113 0 186 -47v-85h-37q-61 49 -145 49q-132 0 -132 -102q0 -50 32 -72.5t106 -41.5q115 -31 163 -73.5t48 -132.5q0 -101 -63 -154t-178 -53z" />
    <glyph glyph-name="scommaaccent" unicode="&#x219;" horiz-adv-x="443" 
d="M171 -201v46q38 6 38 28q0 4 -2 7.5t-4 5t-6.5 4t-6.5 3.5q-17 14 -17 38q0 19 13.5 31.5t33.5 12.5q23 0 38 -15.5t15 -47.5q0 -101 -102 -113zM209 -5q-101 0 -171 46v79h33q49 -47 133 -47q109 0 109 76q0 33 -23.5 49.5t-86.5 26.5q-83 12 -124 46.5t-41 104.5
q0 73 50.5 113t137.5 40q89 0 154 -37v-78h-33q-46 37 -120 37q-98 0 -98 -67q0 -31 24.5 -46.5t86.5 -24.5q89 -13 129 -47.5t40 -107.5q0 -77 -50 -120t-150 -43z" />
    <glyph glyph-name="uni0237" unicode="&#x237;" horiz-adv-x="240" 
d="M-25 -158v63h29q35 0 49.5 17t14.5 55v546h57q29 0 37 -14t8 -64v-474q0 -137 -132 -137q-39 0 -63 8z" />
    <glyph glyph-name="circumflex" unicode="&#x2c6;" 
d="M80 567v29l88 104h73l85 -104v-29h-57l-67 64l-69 -64h-53z" />
    <glyph glyph-name="caron" unicode="&#x2c7;" 
d="M326 700v-29l-88 -104h-73l-85 104v29h57l67 -64l69 64h53z" />
    <glyph glyph-name="breve" unicode="&#x2d8;" 
d="M203 568q-49 0 -81.5 28t-39.5 69v29h66q7 -54 55 -54q49 0 56 54h66v-29q-8 -41 -40 -69t-82 -28z" />
    <glyph glyph-name="dotaccent" unicode="&#x2d9;" 
d="M204 581q-24 0 -41.5 17t-17.5 41q0 25 17.5 42.5t41.5 17.5t41.5 -17.5t17.5 -42.5q0 -24 -17.5 -41t-41.5 -17z" />
    <glyph glyph-name="ring" unicode="&#x2da;" 
d="M203 570q-40 0 -67 25.5t-27 67.5t27.5 68.5t66.5 26.5q40 0 67.5 -26.5t27.5 -68.5t-27.5 -67.5t-67.5 -25.5zM203 619q18 0 30 12.5t12 31.5q0 20 -12 32.5t-30 12.5t-29.5 -12.5t-11.5 -32.5q0 -19 12 -31.5t29 -12.5z" />
    <glyph glyph-name="ogonek" unicode="&#x2db;" horiz-adv-x="402" 
d="M226 -165q-40 0 -63.5 20t-23.5 54q0 52 58 91h67q-45 -38 -45 -67q0 -34 42 -34h24v-51q-24 -13 -59 -13z" />
    <glyph glyph-name="tilde" unicode="&#x2dc;" 
d="M56 574v29q16 82 86 82q24 0 58.5 -16t45.5 -16q28 0 36 34h58v-30q-16 -82 -86 -82q-24 0 -58 16.5t-44 16.5q-30 0 -36 -34h-60z" />
    <glyph glyph-name="hungarumlaut" unicode="&#x2dd;" 
d="M104 567v21l39 112h84v-33l-66 -100h-57zM244 567v21l38 112h85v-33l-66 -100h-57z" />
    <glyph glyph-name="endash" unicode="&#x2013;" horiz-adv-x="431" 
d="M45 243v84h341v-84h-341z" />
    <glyph glyph-name="emdash" unicode="&#x2014;" horiz-adv-x="713" 
d="M45 243v84h623v-84h-623z" />
    <glyph glyph-name="quoteleft" unicode="&#x2018;" horiz-adv-x="194" 
d="M158 653q-48 -8 -48 -37q0 -5 1 -8t3.5 -6t4.5 -4t7 -4t7 -4q22 -15 22 -46q0 -23 -16 -37.5t-41 -14.5q-27 0 -44.5 19t-17.5 56q0 122 122 136v-50z" />
    <glyph glyph-name="quoteright" unicode="&#x2019;" horiz-adv-x="194" 
d="M36 495v50q50 8 50 37q0 6 -2.5 10t-5 6t-8.5 5.5t-9 5.5q-22 16 -22 45q0 23 16 37.5t41 14.5q27 0 44.5 -19t17.5 -56q0 -123 -122 -136z" />
    <glyph glyph-name="quotesinglbase" unicode="&#x201a;" horiz-adv-x="194" 
d="M36 -39q23 3 36.5 13t13.5 23q0 6 -2.5 10t-5 6t-8.5 5.5t-9 5.5q-22 16 -22 45q0 23 16 37.5t41 14.5q27 0 44.5 -19t17.5 -56q0 -122 -122 -135v50z" />
    <glyph glyph-name="quotedblleft" unicode="&#x201c;" horiz-adv-x="366" 
d="M158 653q-48 -8 -48 -37q0 -5 1 -8t3.5 -6t4.5 -4t7 -4t7 -4q22 -15 22 -46q0 -23 -16 -37.5t-41 -14.5q-27 0 -44.5 19t-17.5 56q0 122 122 136v-50zM330 653q-49 -8 -49 -37q0 -6 2.5 -10t5 -6t8 -5t8.5 -5q23 -15 23 -46q0 -22 -16.5 -37t-41.5 -15q-27 0 -44.5 19
t-17.5 56q0 122 122 136v-50z" />
    <glyph glyph-name="quotedblright" unicode="&#x201d;" horiz-adv-x="366" 
d="M208 495v50q49 8 49 37q0 6 -2.5 10t-4.5 6t-8 5.5t-9 5.5q-22 16 -22 45q0 23 16 37.5t41 14.5q27 0 44.5 -19t17.5 -56q0 -123 -122 -136zM36 495v50q50 8 50 37q0 6 -2.5 10t-5 6t-8.5 5.5t-9 5.5q-22 16 -22 45q0 23 16 37.5t41 14.5q27 0 44.5 -19t17.5 -56
q0 -123 -122 -136z" />
    <glyph glyph-name="quotedblbase" unicode="&#x201e;" horiz-adv-x="366" 
d="M208 -39q23 3 36 13t13 23q0 6 -2.5 10t-4.5 6t-8 5.5t-9 5.5q-22 16 -22 45q0 23 16 37.5t41 14.5q27 0 44.5 -19t17.5 -56q0 -122 -122 -135v50zM36 -39q23 3 36.5 13t13.5 23q0 6 -2.5 10t-5 6t-8.5 5.5t-9 5.5q-22 16 -22 45q0 23 16 37.5t41 14.5q27 0 44.5 -19
t17.5 -56q0 -122 -122 -135v50z" />
    <glyph glyph-name="dagger" unicode="&#x2020;" horiz-adv-x="448" 
d="M186 -49l-15 320v67l21 106l-105 -22h-55v102h55l105 -23l-18 98v101h100v-101l-19 -98l106 23h54v-102h-54l-106 22l22 -105v-68l-15 -320h-76z" />
    <glyph glyph-name="daggerdbl" unicode="&#x2021;" horiz-adv-x="448" 
d="M174 -49v99l18 97l-105 -22h-55v101h55l105 -22l-21 87v68l22 88l-106 -22h-55v101h55l106 -22l-19 97v99h100v-99l-19 -97l106 22h54v-101h-54l-106 22l23 -87v-68l-24 -88l107 22h54v-101h-54l-107 22l20 -97v-99h-100z" />
    <glyph glyph-name="bullet" unicode="&#x2022;" horiz-adv-x="321" 
d="M160 162q-53 0 -89 34t-36 92t36 93t89 35q54 0 89.5 -35t35.5 -93t-35.5 -92t-89.5 -34z" />
    <glyph glyph-name="ellipsis" unicode="&#x2026;" horiz-adv-x="624" 
d="M98 -5q-26 0 -44 18t-18 44t18 44.5t44 18.5t44.5 -18.5t18.5 -44.5t-18.5 -44t-44.5 -18zM312 -5q-26 0 -44 18t-18 44t18 44.5t44 18.5t44.5 -18.5t18.5 -44.5t-18.5 -44t-44.5 -18zM526 -5q-26 0 -44.5 18t-18.5 44t18.5 44.5t44.5 18.5t44 -18.5t18 -44.5t-18 -44
t-44 -18z" />
    <glyph glyph-name="perthousand" unicode="&#x2030;" horiz-adv-x="1131" 
d="M191 406q37 0 57.5 30.5t20.5 88.5q0 59 -20.5 89t-57.5 30q-36 0 -56.5 -30.5t-20.5 -88.5t21 -88.5t56 -30.5zM191 344q-67 0 -114 47.5t-47 134.5t46.5 133.5t114.5 46.5q69 0 115 -46.5t46 -133.5t-46 -134.5t-115 -47.5zM106 -34l478 763h81l-479 -763h-80zM580 56
q36 0 57 30.5t21 88.5q0 59 -21 89t-57 30t-56.5 -30t-20.5 -89q0 -58 20.5 -88.5t56.5 -30.5zM580 -6q-68 0 -114.5 47.5t-46.5 134.5t46.5 133.5t114.5 46.5t114.5 -46.5t46.5 -133.5t-46.5 -134.5t-114.5 -47.5zM940 56q36 0 57 30.5t21 88.5q0 59 -21 89t-57 30
t-56.5 -30.5t-20.5 -88.5t21 -88.5t56 -30.5zM940 -6q-68 0 -114.5 47.5t-46.5 134.5t46.5 133.5t114.5 46.5t114.5 -46.5t46.5 -133.5t-46.5 -134.5t-114.5 -47.5z" />
    <glyph glyph-name="guilsinglleft" unicode="&#x2039;" horiz-adv-x="290" 
d="M171 43l-132 194v45l132 195h80v-27l-123 -188v-2l123 -191v-26h-80z" />
    <glyph glyph-name="guilsinglright" unicode="&#x203a;" horiz-adv-x="290" 
d="M120 477l131 -195v-44l-131 -195h-81v26l123 191v3l-123 187v27h81z" />
    <glyph glyph-name="fraction" unicode="&#x2044;" horiz-adv-x="218" 
d="M387 729l-478 -763h-78l479 763h77z" />
    <glyph glyph-name="Euro" unicode="&#x20ac;" horiz-adv-x="591" 
d="M378 254h-179q27 -178 171 -178q91 0 152 59h38v-76q-76 -65 -195 -65q-112 0 -184.5 67.5t-92.5 192.5h-62v67h55v29q0 21 1 32h-56v67h63q23 122 99 189.5t187 67.5q59 0 98 -11.5t77 -35.5v-80h-42q-55 44 -130 44q-147 0 -178 -174h215l-12 -67h-211v-61h199z" />
    <glyph glyph-name="trademark" unicode="&#x2122;" horiz-adv-x="649" 
d="M174 422h-65v228h-80v50h225v-50h-80v-228zM297 422v278h98l54 -175h1l56 175h98v-278h-64v222h-1l-70 -222h-47l-70 222h-1v-222h-54z" />
    <glyph glyph-name="onethird" unicode="&#x2153;" horiz-adv-x="716" 
d="M194 320h-85v295l-62 -34h-19v61l105 58h61v-380zM602 729l-479 -763h-77l478 763h78zM545 -5q-68 0 -113 34v54h31q26 -28 76 -28q72 0 72 57q0 53 -70 53h-34v56h32q31 0 49.5 14t18.5 38q0 49 -60 49q-45 0 -73 -24h-31v52q53 35 115 35q58 0 92.5 -26t34.5 -76
q0 -63 -71 -85v-2q78 -16 78 -89q0 -54 -39 -83t-108 -29z" />
    <glyph glyph-name="twothirds" unicode="&#x2154;" horiz-adv-x="785" 
d="M291 385v-65h-257v65l106 101q38 36 53.5 58.5t15.5 45.5t-15.5 37t-42.5 14q-46 0 -77 -31h-31v56q49 39 119 39q62 0 96 -28t34 -81q0 -38 -21.5 -69t-71.5 -77l-72 -65h164zM682 729l-478 -763h-78l479 763h77zM613 -5q-68 0 -113 34v54h31q26 -28 75 -28q73 0 73 57
q0 53 -70 53h-35v56h32q32 0 50.5 13.5t18.5 38.5q0 49 -60 49q-44 0 -74 -24h-30v52q53 35 115 35q58 0 92.5 -26t34.5 -76q0 -63 -71 -85v-2q78 -16 78 -89q0 -53 -39.5 -82.5t-107.5 -29.5z" />
    <glyph glyph-name="oneeighth" unicode="&#x215b;" horiz-adv-x="733" 
d="M194 320h-85v295l-62 -34h-19v61l105 58h61v-380zM605 729l-478 -763h-77l478 763h77zM562 -6q-70 0 -109 30t-39 82q0 71 73 96v2q-57 16 -57 81q0 46 36 73t96 27q58 0 95 -27.5t37 -72.5q0 -60 -57 -81v-2q73 -23 73 -96q0 -52 -39 -82t-109 -30zM562 50q34 0 52 17
t18 45t-18 45.5t-52 17.5q-35 0 -52.5 -17.5t-17.5 -45.5t17.5 -45t52.5 -17zM562 226q57 0 57 51q0 24 -15 38t-42 14q-58 0 -58 -52q0 -51 58 -51z" />
    <glyph glyph-name="threeeighths" unicode="&#x215c;" horiz-adv-x="754" 
d="M145 315q-69 0 -114 34v54h31q30 -28 76 -28q73 0 73 57q0 54 -70 54h-35v55h32q32 0 50.5 14t18.5 39q0 48 -60 48q-44 0 -74 -24h-30v52q51 35 114 35q58 0 92.5 -26t34.5 -76q0 -63 -70 -85v-2q77 -16 77 -89q0 -53 -39 -82.5t-107 -29.5zM644 729l-478 -763h-78
l479 763h77zM583 -6q-70 0 -108.5 30t-38.5 82q0 71 72 96v2q-57 17 -57 81q0 45 36.5 72.5t95.5 27.5t95.5 -27.5t36.5 -72.5q0 -61 -56 -81v-2q73 -24 73 -96q0 -52 -39.5 -82t-109.5 -30zM583 50q35 0 52.5 17t17.5 45t-17.5 45.5t-52.5 17.5q-34 0 -52 -17.5t-18 -45.5
t18 -45t52 -17zM583 226q57 0 57 51q0 24 -15 38t-42 14q-58 0 -58 -52q0 -51 58 -51z" />
    <glyph glyph-name="fiveeighths" unicode="&#x215d;" horiz-adv-x="763" 
d="M299 444q0 -59 -42 -94t-112 -35q-63 0 -110 31v56h31q28 -26 75 -26q35 0 55.5 18t20.5 50q0 30 -16.5 46t-43.5 16q-35 0 -61 -28h-48v222h230v-64h-171v-99h1q26 24 77 24q50 0 82 -30t32 -87zM649 729l-478 -763h-78l479 763h77zM592 -6q-70 0 -109 30t-39 82
q0 71 73 96v2q-57 16 -57 81q0 46 36 73t96 27q59 0 95.5 -27.5t36.5 -72.5q0 -60 -56 -81v-2q72 -23 72 -96q0 -52 -39 -82t-109 -30zM592 50q34 0 52 17t18 45t-18 45.5t-52 17.5q-35 0 -52.5 -17.5t-17.5 -45.5t17.5 -45t52.5 -17zM592 226q57 0 57 51q0 24 -15 38
t-42 14q-58 0 -58 -52q0 -51 58 -51z" />
    <glyph glyph-name="seveneighths" unicode="&#x215e;" horiz-adv-x="738" 
d="M604 729l-479 -763h-77l478 763h78zM566 -6q-70 0 -109 30t-39 82q0 71 73 96v2q-57 16 -57 81q0 46 36 73t96 27q58 0 95 -27.5t37 -72.5q0 -60 -57 -81v-2q73 -23 73 -96q0 -52 -39 -82t-109 -30zM566 50q34 0 52 17t18 45t-18 45.5t-52 17.5q-35 0 -52.5 -17.5
t-17.5 -45.5t17.5 -45t52.5 -17zM566 226q57 0 57 51q0 24 -15 38t-42 14q-58 0 -58 -52q0 -51 58 -51zM77 320v27l144 285v2h-187v66h255v-70l-133 -310h-79z" />
    <glyph glyph-name="minus" unicode="&#x2212;" horiz-adv-x="500" 
d="M466 303h-432v85h432v-85z" />
    <glyph glyph-name="fi" unicode="&#xfb01;" horiz-adv-x="544" 
d="M20 451v72h63v45q0 70 37.5 104.5t104.5 34.5q39 0 67 -10v-65h-35q-36 0 -54 -15t-18 -53v-41h107v-72h-107v-451h-102v451h-63zM474 0h-102v523h57q30 0 37.5 -14t7.5 -64v-445zM424 581q-24 0 -42 17t-18 41q0 25 18 42.5t42 17.5t42 -17.5t18 -42.5q0 -24 -18 -41
t-42 -17z" />
    <glyph glyph-name="fl" unicode="&#xfb02;" horiz-adv-x="543" 
d="M20 451v72h63v45q0 70 37.5 104.5t104.5 34.5q39 0 67 -10v-65h-35q-36 0 -54 -15t-18 -53v-41h107v-72h-107v-451h-102v451h-63zM475 0h-103v700h57q30 0 38 -12t8 -56v-632z" />
    <glyph glyph-name="space_uni0326" 
d="M152 -201v46q37 6 37 28q0 4 -2 7.5t-3.5 4.5l-6 4t-6.5 4q-18 13 -18 38q0 19 14 31.5t34 12.5q23 0 37.5 -15.5t14.5 -47.5q0 -101 -101 -113z" />
    <glyph glyph-name="zero.numerator" horiz-adv-x="396" 
d="M199 315q-73 0 -120.5 50t-47.5 145q0 94 48.5 144.5t119.5 50.5t118.5 -50.5t47.5 -144.5q0 -95 -47.5 -145t-118.5 -50zM199 375q82 0 82 134q0 133 -82 133t-82 -133q0 -134 82 -134z" />
    <glyph glyph-name="one.numerator" horiz-adv-x="249" 
d="M189 320h-85v295l-62 -34h-19v61l105 58h61v-380z" />
    <glyph glyph-name="two.numerator" horiz-adv-x="319" 
d="M286 385v-65h-257v65l106 101q38 35 53.5 57.5t15.5 46.5q0 23 -15 37t-43 14q-44 0 -77 -31h-31v56q49 39 119 39q62 0 96 -28t34 -81q0 -38 -21.5 -69t-71.5 -77l-72 -65h164z" />
    <glyph glyph-name="three.numerator" horiz-adv-x="312" 
d="M136 315q-68 0 -113 34v54h31q28 -28 75 -28q73 0 73 57q0 54 -70 54h-35v55h32q32 0 50.5 14t18.5 39q0 48 -60 48q-44 0 -74 -24h-30v52q51 35 115 35q57 0 92 -26t35 -76q0 -63 -71 -85v-2q77 -16 77 -89q0 -53 -39 -82.5t-107 -29.5z" />
    <glyph glyph-name="four.numerator" horiz-adv-x="350" 
d="M280 320h-79v85h-175v64l178 231h76v-239h44v-56h-44v-85zM88 463v-2h114v146h-3z" />
    <glyph glyph-name="five.numerator" horiz-adv-x="320" 
d="M289 444q0 -59 -42 -94t-112 -35q-61 0 -110 31v56h31q28 -26 75 -26q36 0 56 18t20 50q0 30 -16 46t-43 16q-37 0 -61 -28h-49v222h230v-64h-171v-99h1q28 24 77 24q50 0 82 -30t32 -87z" />
    <glyph glyph-name="six.numerator" horiz-adv-x="358" 
d="M187 315q-71 0 -113.5 46t-42.5 140q0 96 50.5 150t137.5 54q52 0 90 -20v-60h-31q-22 16 -60 16q-94 0 -103 -115q38 32 97 32q52 0 84.5 -29t32.5 -85q0 -60 -38.5 -94.5t-103.5 -34.5zM185 503q-41 0 -71 -26q5 -105 71 -105q64 0 64 68q0 63 -64 63z" />
    <glyph glyph-name="seven.numerator" horiz-adv-x="313" 
d="M72 320v27l145 285v2h-188v66h255v-70l-132 -310h-80z" />
    <glyph glyph-name="eight.numerator" horiz-adv-x="352" 
d="M176 314q-70 0 -109 30t-39 82q0 71 73 96v2q-57 18 -57 81q0 46 36 73t96 27q59 0 95.5 -27t36.5 -73q0 -60 -57 -81v-2q73 -23 73 -96q0 -52 -39 -82t-109 -30zM176 370q34 0 52 17t18 45t-18 46t-52 18t-52 -18t-18 -46t17.5 -45t52.5 -17zM176 546q27 0 42 13.5
t15 37.5t-15 38t-42 14q-58 0 -58 -52q0 -24 15 -37.5t43 -13.5z" />
    <glyph glyph-name="nine.numerator" horiz-adv-x="355" 
d="M170 705q71 0 113 -46t42 -141q0 -97 -48 -150t-139 -53q-59 0 -92 21v60h30q23 -17 62 -17q51 0 75.5 27.5t29.5 85.5q-37 -31 -95 -31q-52 0 -86 30t-34 86q0 59 39 93.5t103 34.5zM173 516q43 0 70 25q-5 108 -72 108q-30 0 -47 -18t-17 -51q0 -64 66 -64z" />
    <glyph glyph-name="zero.denominator" horiz-adv-x="396" 
d="M199 -5q-73 0 -120.5 50t-47.5 145q0 94 48.5 144.5t119.5 50.5t118.5 -50.5t47.5 -144.5q0 -95 -47.5 -145t-118.5 -50zM199 55q82 0 82 133q0 134 -82 134t-82 -134q0 -133 82 -133z" />
    <glyph glyph-name="one.denominator" horiz-adv-x="249" 
d="M189 0h-85v295l-62 -34h-19v61l105 58h61v-380z" />
    <glyph glyph-name="two.denominator" horiz-adv-x="319" 
d="M286 64v-64h-257v64l106 101q38 36 53.5 58.5t15.5 45.5q0 24 -15 37.5t-43 13.5q-43 0 -77 -30h-31v56q49 39 119 39q62 0 96 -28t34 -81q0 -38 -21.5 -69t-71.5 -77l-72 -66h164z" />
    <glyph glyph-name="three.denominator" horiz-adv-x="312" 
d="M136 -5q-68 0 -113 34v54h31q26 -28 75 -28q73 0 73 57q0 53 -70 53h-35v56h32q32 0 50.5 13.5t18.5 38.5q0 49 -60 49q-44 0 -74 -24h-30v52q51 35 115 35q57 0 92 -26t35 -76q0 -63 -71 -85v-2q77 -16 77 -89q0 -53 -39 -82.5t-107 -29.5z" />
    <glyph glyph-name="four.denominator" horiz-adv-x="350" 
d="M280 0h-79v85h-175v64l178 231h76v-239h44v-56h-44v-85zM88 143v-2h114v146h-3z" />
    <glyph glyph-name="five.denominator" horiz-adv-x="320" 
d="M289 124q0 -59 -42 -94t-112 -35q-61 0 -110 31v56h31q29 -27 75 -27q36 0 56 18.5t20 50.5q0 30 -16 46t-43 16q-37 0 -61 -28h-49v222h230v-64h-171v-99h1q28 24 77 24q50 0 82 -30t32 -87z" />
    <glyph glyph-name="six.denominator" horiz-adv-x="358" 
d="M187 -5q-71 0 -113.5 46t-42.5 140q0 96 50.5 150t137.5 54q53 0 90 -21v-59h-31q-22 16 -60 16q-94 0 -103 -115q39 31 97 31q52 0 84.5 -29t32.5 -84q0 -60 -38.5 -94.5t-103.5 -34.5zM185 183q-41 0 -71 -26q5 -105 71 -105q64 0 64 68q0 63 -64 63z" />
    <glyph glyph-name="seven.denominator" horiz-adv-x="313" 
d="M72 0v27l145 284v2h-188v67h255v-70l-132 -310h-80z" />
    <glyph glyph-name="eight.denominator" horiz-adv-x="352" 
d="M176 -6q-70 0 -109 30t-39 82q0 71 73 96v2q-57 16 -57 81q0 46 36 73t96 27q58 0 95 -27.5t37 -72.5q0 -60 -57 -81v-2q73 -23 73 -96q0 -52 -39 -82t-109 -30zM176 50q34 0 52 17t18 45t-18 45.5t-52 17.5q-35 0 -52.5 -17.5t-17.5 -45.5t17.5 -45t52.5 -17zM176 226
q57 0 57 51q0 24 -15 38t-42 14q-58 0 -58 -52q0 -51 58 -51z" />
    <glyph glyph-name="nine.denominator" horiz-adv-x="355" 
d="M170 385q71 0 113 -46t42 -141q0 -97 -48 -150t-139 -53q-59 0 -92 21v59h30q22 -16 62 -16q51 0 75.5 27.5t29.5 85.5q-37 -31 -95 -31q-52 0 -86 30t-34 86q0 59 39 93.5t103 34.5zM173 195q42 0 70 26q-5 107 -72 107q-30 0 -47 -18t-17 -51q0 -64 66 -64z" />
    <glyph glyph-name="Q.alt" horiz-adv-x="715" 
d="M608 -123q-31 52 -90.5 78.5t-168.5 36.5q-111 11 -181 67q-128 94 -128 291q0 167 91 261.5t226 94.5t225.5 -94.5t90.5 -261.5q0 -124 -48.5 -203.5t-130.5 -106.5v-2q153 -21 216 -120v-41h-102zM357 74q92 0 148.5 70t56.5 204q0 135 -56.5 206t-148.5 71t-148.5 -71
t-56.5 -206t56 -204.5t149 -69.5z" />
    <glyph glyph-name="Q.alt1" horiz-adv-x="715" 
d="M357 -6q-135 0 -226 94.5t-91 261.5t91 261.5t226 94.5q134 0 225 -95t91 -261q0 -148 -74 -241l80 -63v-46h-86l-57 49q-82 -55 -179 -55zM357 75q59 0 109 30l-102 86v46h76l85 -70q37 69 37 181q0 135 -56.5 206.5t-148.5 71.5t-148.5 -71t-56.5 -207
q0 -134 56 -203.5t149 -69.5z" />
    <glyph glyph-name="f.short" horiz-adv-x="302" 
d="M20 451v72h63v45q0 70 37.5 104.5t104.5 34.5q39 0 67 -10v-65h-35q-36 0 -54 -15t-18 -53v-41h107v-72h-107v-451h-102v451h-63z" />
    <glyph glyph-name="f_f.short" horiz-adv-x="576" 
d="M185 451v-451h-102v451h-63v72h63v39q0 70 37.5 104.5t104.5 34.5q41 0 73 -10v-65h-41q-36 0 -54 -15t-18 -53v-35h172v45q0 71 37.5 105t105.5 34q35 0 67 -10v-65h-36q-37 0 -54.5 -14.5t-17.5 -53.5v-41h108v-72h-108v-451h-102v451h-172z" />
    <glyph glyph-name="less.cap" horiz-adv-x="435" 
d="M307 0l-268 320v59l268 321h88v-35l-257 -314v-3l257 -314v-34h-88z" />
    <glyph glyph-name="greater.cap" horiz-adv-x="435" 
d="M39 0v34l258 316v3l-258 312v35h89l268 -320v-59l-268 -321h-89z" />
    <glyph glyph-name="questiondown.cap" horiz-adv-x="441" 
d="M307 520q9 -65 -6 -106t-66 -94q-31 -31 -45.5 -47.5t-29.5 -46.5t-15 -61q0 -42 25 -65t70 -23q84 0 127 52h42v-79q-72 -56 -175 -56q-93 0 -145 43.5t-52 127.5q0 57 26.5 97t84.5 92q35 32 50 49t26 47t8 70h75zM265 705q26 0 43.5 -18t17.5 -44t-17.5 -44.5
t-43.5 -18.5q-25 0 -43 18.5t-18 44.5t17.5 44t43.5 18z" />
    <glyph glyph-name="exclamdown.cap" horiz-adv-x="265" 
d="M168 520l19 -455v-65h-109v65l19 455h71zM133 705q26 0 43.5 -18t17.5 -44t-18 -44.5t-43 -18.5q-26 0 -44 18.5t-18 44.5t18 44t44 18z" />
    <glyph glyph-name="bullet.cap" horiz-adv-x="325" 
d="M162 201q-53 0 -88.5 34t-35.5 92t35.5 93t88.5 35q54 0 90 -35t36 -93t-35.5 -92t-90.5 -34z" />
    <glyph glyph-name="hyphen.cap" horiz-adv-x="281" 
d="M36 290v88h209v-88h-209z" />
    <glyph glyph-name="endash.cap" horiz-adv-x="418" 
d="M38 292v84h341v-84h-341z" />
    <glyph glyph-name="emdash.cap" horiz-adv-x="700" 
d="M38 292v84h624v-84h-624z" />
    <glyph glyph-name="dagger.cap" horiz-adv-x="448" 
d="M186 0l-15 278v67l21 107l-105 -23h-55v102h55l105 -23l-18 98v94h100v-94l-19 -98l106 23h54v-102h-54l-106 23l22 -106v-67l-15 -279h-76z" />
    <glyph glyph-name="daggerdbl.cap" horiz-adv-x="448" 
d="M171 373l22 88l-106 -22h-55v101h55l106 -22l-19 97v85h100v-85l-19 -97l106 22h54v-101h-54l-106 22l23 -87v-47l-24 -88l107 22h54v-101h-54l-107 22l20 -97v-85h-100v85l18 97l-105 -22h-55v101h55l105 -22l-21 87v47z" />
    <glyph glyph-name="quoteleft.cap" horiz-adv-x="518" 
d="M279 -6q-103 0 -172.5 71t-69.5 207q0 188 112 301.5t324 126.5v-76q-130 -14 -193 -66t-63 -116q0 -27 16 -43.5t34.5 -22.5t52 -14t51.5 -14q49 -15 79.5 -55t30.5 -108q0 -83 -55 -137t-147 -54z" />
    <glyph glyph-name="quoteright.cap" horiz-adv-x="518" 
d="M240 706q103 0 172 -71t69 -207q0 -188 -112 -301.5t-323 -126.5v76q130 15 193 66.5t63 115.5q0 27 -16 44t-34.5 22.5t-52 13t-51.5 14.5q-49 15 -80 55t-31 108q0 83 55.5 137t147.5 54z" />
    <glyph glyph-name="quotedblleft.cap" horiz-adv-x="1006" 
d="M279 -6q-103 0 -172.5 71t-69.5 207q0 188 112 301.5t324 126.5v-76q-130 -14 -193 -66t-63 -116q0 -27 16 -43.5t34.5 -22.5t52 -14t51.5 -14q49 -15 79.5 -55t30.5 -108q0 -83 -55 -137t-147 -54zM767 -6q-104 0 -173 71t-69 207q0 188 112 301.5t324 126.5v-76
q-130 -14 -193.5 -66t-63.5 -116q0 -27 16 -44t35 -22.5t52.5 -13t51.5 -14.5q109 -33 109 -163q0 -83 -54.5 -137t-146.5 -54z" />
    <glyph glyph-name="quotedblright.cap" horiz-adv-x="1006" 
d="M728 706q103 0 172 -71t69 -207q0 -188 -112 -301.5t-323 -126.5v76q130 15 193 66.5t63 115.5q0 27 -16 43.5t-34.5 22.5t-52.5 13.5t-51 14.5q-111 33 -111 163q0 83 55.5 137t147.5 54zM240 706q103 0 172 -71t69 -207q0 -188 -112 -301.5t-323 -126.5v76
q130 15 193 66.5t63 115.5q0 27 -16 44t-34.5 22.5t-52 13t-51.5 14.5q-49 15 -80 55t-31 108q0 83 55.5 137t147.5 54z" />
    <glyph glyph-name="guillemotleft.cap" horiz-adv-x="654" 
d="M614 700v-35l-239 -314v-3l239 -314v-34h-89l-249 320v59l249 321h89zM377 700v-35l-240 -314v-3l240 -314v-34h-89l-249 320v59l249 321h89z" />
    <glyph glyph-name="guillemotright.cap" horiz-adv-x="654" 
d="M39 0v34l240 316v3l-240 312v35h89l250 -320v-59l-250 -321h-89zM278 0v34l238 316v3l-238 312v35h88l249 -320v-59l-249 -321h-88z" />
    <glyph glyph-name="at.cap" horiz-adv-x="841" 
d="M422 -31q-75 0 -141 21t-120.5 63t-86 111.5t-31.5 159.5q0 93 35.5 171t93.5 127t128 76t143 27q152 0 254 -84t102 -229q0 -124 -63.5 -188.5t-152.5 -64.5q-94 0 -109 70q-55 -70 -132 -70q-50 0 -82 33.5t-32 96.5q0 95 61 170t153 75q56 0 92 -36q20 32 54 32h32
l-52 -243q-16 -63 34 -63q53 0 88 46t35 142q0 115 -77 181t-205 66q-61 0 -118 -21t-103 -61.5t-73.5 -106t-27.5 -146.5q0 -146 83 -217.5t218 -71.5q145 0 235 66h27v-63q-43 -31 -113.5 -50t-148.5 -19zM372 229q48 0 101 58l35 162q-26 15 -57 15q-57 0 -94.5 -52
t-37.5 -122q0 -30 14.5 -45.5t38.5 -15.5z" />
    <glyph glyph-name="paragraph.cap" horiz-adv-x="569" 
d="M264 0v318h-9q-221 0 -221 191q0 105 63.5 148t177.5 43h218v-700h-77v623h-75v-623h-77z" />
    <glyph glyph-name="grave.cap" 
d="M238 722h-58l-88 88v32h103l43 -95v-25z" />
    <glyph glyph-name="dieresis.cap" 
d="M120 727q-23 0 -40 16.5t-17 40.5q0 23 17 39.5t40 16.5q24 0 40.5 -16.5t16.5 -39.5q0 -24 -16.5 -40.5t-40.5 -16.5zM286 727q-23 0 -39.5 16.5t-16.5 40.5q0 23 16.5 39.5t39.5 16.5t40 -16.5t17 -39.5q0 -24 -17 -40.5t-40 -16.5z" />
    <glyph glyph-name="macron.cap" 
d="M325 814v-73h-243v73h243z" />
    <glyph glyph-name="acute.cap" 
d="M169 722v25l43 95h102v-32l-86 -88h-59z" />
    <glyph glyph-name="circumflex.cap" 
d="M81 722v29l87 94h73l84 -94v-29h-57l-66 54l-67 -54h-54z" />
    <glyph glyph-name="caron.cap" 
d="M325 845v-29l-88 -94h-72l-84 94v29h56l67 -53l67 53h54z" />
    <glyph glyph-name="breve.cap" 
d="M203 724q-49 0 -81.5 25.5t-39.5 63.5v29h66q2 -21 16.5 -33.5t38.5 -12.5q49 0 56 46h66v-29q-8 -38 -40 -63.5t-82 -25.5z" />
    <glyph glyph-name="dotaccent.cap" 
d="M204 728q-24 0 -41.5 17t-17.5 41q0 25 17.5 42.5t41.5 17.5t41.5 -17.5t17.5 -42.5q0 -24 -17.5 -41t-41.5 -17z" />
    <glyph glyph-name="ring.cap" 
d="M203 725q-40 0 -67 26t-27 68t27.5 68t66.5 26t67 -26t28 -68t-27.5 -68t-67.5 -26zM203 775q18 0 30 12t12 32t-12 32.5t-30 12.5t-29.5 -12.5t-11.5 -32.5t11.5 -32t29.5 -12z" />
    <glyph glyph-name="tilde.cap" 
d="M56 726v30q16 82 86 82q24 0 58.5 -16t45.5 -16q28 0 36 33h58v-29q-16 -82 -86 -82q-24 0 -58 16.5t-44 16.5q-30 0 -36 -35h-60z" />
    <glyph glyph-name="hungarumlaut.cap" 
d="M104 722v22l34 98h85v-32l-62 -88h-57zM244 722v22l34 98h84v-32l-61 -88h-57z" />
    </font>
</defs>
</svg>
